<?xml version="1.0" standalone="no"?>
<!DOCTYPE svg PUBLIC "-//W3C//DTD SVG 1.1//EN" "http://www.w3.org/Graphics/SVG/1.1/DTD/svg11.dtd" >
<svg xmlns="http://www.w3.org/2000/svg" xmlns:xlink="http://www.w3.org/1999/xlink" version="1.1">
<metadata>
Created by FontForge 20160405 at Wed Apr 12 02:43:33 2017
 By www-data
Copyright (c) Laurenz Brunner. www.lineto.com, 2004. All rights reserved.
</metadata>
<defs>
<font id="AkkuratPro-Regular" horiz-adv-x="560" >
  <font-face 
    font-family="Akkurat Pro"
    font-weight="400"
    font-stretch="normal"
    units-per-em="1000"
    panose-1="2 0 5 3 3 0 0 2 0 4"
    ascent="783"
    descent="-217"
    x-height="506"
    cap-height="709"
    bbox="-81 -289 1125 930"
    underline-thickness="45"
    underline-position="-115"
    stemh="77"
    stemv="92"
    unicode-range="U+0020-FB02"
  />
<missing-glyph horiz-adv-x="588" 
d="M88 0v698h412v-698h-412zM163 74h262v549h-262v-549z" />
    <glyph glyph-name="fi" unicode="fi" horiz-adv-x="638" 
d="M361 652c-27 3 -48 8 -84 8c-45 0 -72 -28 -72 -69v-85h146v-72h-146v-434h-85v434h-92v72h92v90c0 76 59 136 147 136c35 0 66 -4 94 -9v-71zM551 622h-99v100h99v-100zM545 0h-87v506h87v-506z" />
    <glyph glyph-name="fl" unicode="fl" horiz-adv-x="662" 
d="M361 652c-27 3 -48 8 -84 8c-45 0 -72 -28 -72 -69v-85h146v-72h-146v-434h-85v434h-92v72h92v90c0 76 59 136 147 136c35 0 66 -4 94 -9v-71zM627 0c0 0 -19 -6 -60 -6c-74 0 -106 44 -106 124v604h85v-599c0 -34 11 -52 46 -52c28 0 35 1 35 1v-72z" />
    <glyph glyph-name=".notdef" horiz-adv-x="588" 
d="M88 0v698h412v-698h-412zM163 74h262v549h-262v-549z" />
    <glyph glyph-name="space" unicode=" " horiz-adv-x="230" 
 />
    <glyph glyph-name="A" unicode="A" horiz-adv-x="621" 
d="M613 0h-92l-58 168h-308l-57 -168h-90l250 709h104zM434 252l-126 368l-125 -368h251z" />
    <glyph glyph-name="B" unicode="B" horiz-adv-x="668" 
d="M618 198c0 -57 -23 -100 -54 -133c-40 -43 -108 -65 -178 -65h-286v709h283c66 0 134 -22 173 -65c28 -31 46 -67 46 -118c0 -68 -36 -133 -102 -157c73 -24 118 -96 118 -171zM511 519c0 74 -60 111 -128 111h-196v-223h199c74 0 125 33 125 112zM527 204
c0 79 -64 125 -139 125h-201v-247h199c78 0 141 38 141 122z" />
    <glyph glyph-name="C" unicode="C" horiz-adv-x="634" 
d="M594 226c-3 -66 -29 -122 -70 -164c-43 -43 -113 -76 -190 -76c-71 0 -141 26 -192 76c-77 75 -89 179 -89 292s12 217 89 292c51 50 121 76 192 76c77 0 146 -30 189 -73c41 -42 67 -96 70 -162h-92c-1 39 -16 73 -39 99c-28 31 -74 52 -128 52c-48 0 -95 -19 -129 -54
c-58 -60 -60 -156 -60 -230s2 -170 60 -230c34 -35 81 -54 129 -54c54 0 101 23 129 54c23 26 38 63 39 102h92z" />
    <glyph glyph-name="D" unicode="D" horiz-adv-x="677" 
d="M624 355c0 -102 -14 -210 -91 -284c-50 -48 -117 -71 -186 -71h-247v709h247c69 0 136 -24 186 -72c78 -74 91 -180 91 -282zM534 355c0 76 -5 165 -61 223c-33 33 -80 49 -126 49h-158v-545h158c46 0 93 16 126 49c56 57 61 148 61 224z" />
    <glyph glyph-name="E" unicode="E" horiz-adv-x="625" 
d="M574 0h-474v709h474v-82h-385v-216h338v-84h-338v-245h385v-82z" />
    <glyph glyph-name="F" unicode="F" horiz-adv-x="587" 
d="M559 627h-370v-231h330v-84h-330v-312h-89v709h459v-82z" />
    <glyph glyph-name="G" unicode="G" horiz-adv-x="680" 
d="M606 0h-62l-15 85c-35 -58 -113 -99 -193 -99c-71 0 -140 23 -191 73c-72 70 -92 168 -92 295c0 113 15 217 92 292c51 50 120 76 191 76c80 0 154 -28 203 -80c34 -36 58 -81 61 -138h-93c-3 33 -14 56 -32 78c-32 38 -81 56 -139 56c-48 0 -95 -19 -129 -54
c-58 -60 -62 -156 -62 -230c0 -71 5 -173 64 -233c34 -35 79 -51 127 -51c50 0 97 17 129 49c47 46 61 115 61 180h-190v83h270v-382z" />
    <glyph glyph-name="H" unicode="H" horiz-adv-x="718" 
d="M618 0h-89v327h-340v-327h-89v709h89v-296h340v296h89v-709z" />
    <glyph glyph-name="I" unicode="I" horiz-adv-x="291" 
d="M191 0h-91v709h91v-709z" />
    <glyph glyph-name="J" unicode="J" horiz-adv-x="493" 
d="M413 198c0 -127 -72 -211 -200 -211c-65 0 -113 24 -148 60c-41 42 -57 96 -57 168h90c0 -49 7 -88 37 -116c19 -18 44 -29 78 -29c81 0 111 50 111 128v511h89v-511z" />
    <glyph glyph-name="K" unicode="K" horiz-adv-x="662" 
d="M649 0h-104l-212 368l-144 -168v-200h-89v709h89v-378l325 378h111l-231 -270z" />
    <glyph glyph-name="L" unicode="L" horiz-adv-x="544" 
d="M530 0h-430v709h89v-626h341v-83z" />
    <glyph glyph-name="M" unicode="M" horiz-adv-x="880" 
d="M780 0h-85v598l-220 -588h-70l-220 593v-603h-85v709h128l214 -577l213 577h125v-709z" />
    <glyph glyph-name="N" unicode="N" horiz-adv-x="734" 
d="M634 0h-100l-348 570v-570h-86v709h100l348 -572v572h86v-709z" />
    <glyph glyph-name="O" unicode="O" horiz-adv-x="670" 
d="M617 354c0 -113 -14 -217 -91 -292c-51 -50 -120 -76 -191 -76s-140 26 -191 76c-77 75 -91 179 -91 292s14 217 91 292c51 50 120 76 191 76s140 -26 191 -76c77 -75 91 -179 91 -292zM525 354c0 74 -3 170 -61 230c-34 35 -81 53 -129 53s-95 -18 -129 -53
c-58 -60 -61 -156 -61 -230s3 -170 61 -230c34 -35 81 -53 129 -53s95 18 129 53c58 60 61 156 61 230z" />
    <glyph glyph-name="P" unicode="P" horiz-adv-x="627" 
d="M597 495c0 -69 -21 -123 -59 -161s-96 -59 -174 -59h-175v-275h-89v709h263c83 0 142 -23 180 -64c34 -37 54 -88 54 -150zM505 495c0 90 -56 133 -144 133h-172v-272h173c95 0 143 44 143 139z" />
    <glyph glyph-name="Q" unicode="Q" horiz-adv-x="670" 
d="M617 354c0 -113 -14 -216 -90 -291l64 -83l-59 -46l-65 84c-41 -21 -86 -32 -132 -32c-71 0 -140 26 -191 76c-77 75 -91 179 -91 292s14 217 91 292c51 50 120 76 191 76s140 -26 191 -76c77 -75 91 -179 91 -292zM525 354c0 74 -3 170 -61 230c-34 35 -81 53 -129 53
s-95 -18 -129 -53c-58 -60 -61 -156 -61 -230s3 -170 61 -230c34 -35 81 -53 129 -53c27 0 53 6 78 17l-84 108l58 45l85 -108c50 60 53 150 53 221z" />
    <glyph glyph-name="R" unicode="R" horiz-adv-x="662" 
d="M617 0h-98l-134 295h-196v-295h-89v709h278c83 0 141 -23 180 -63c34 -36 56 -82 56 -144s-20 -104 -54 -140c-21 -22 -51 -39 -85 -50zM522 502c0 90 -60 125 -144 125h-189v-249h189c84 0 144 34 144 124z" />
    <glyph glyph-name="S" unicode="S" horiz-adv-x="635" 
d="M585 195c0 -59 -25 -103 -60 -137c-49 -48 -125 -71 -201 -71c-86 0 -155 24 -203 68c-45 42 -76 103 -76 170h93c0 -42 21 -84 50 -112c32 -31 86 -44 136 -44c54 0 100 11 132 41c22 20 36 45 36 83c0 55 -35 101 -119 114l-112 17c-106 16 -189 75 -189 188
c0 53 24 104 62 140c49 46 112 70 186 70c69 0 137 -23 184 -68c43 -41 66 -92 68 -152h-93c-2 35 -15 66 -35 89c-27 31 -70 49 -125 49c-51 0 -95 -14 -126 -49c-18 -21 -29 -45 -29 -77c0 -64 53 -93 106 -100c40 -5 79 -12 118 -18c118 -17 197 -89 197 -201z" />
    <glyph glyph-name="T" unicode="T" horiz-adv-x="538" 
d="M525 626h-211v-626h-90v626h-211v83h512v-83z" />
    <glyph glyph-name="U" unicode="U" horiz-adv-x="678" 
d="M598 260c0 -177 -100 -273 -259 -273s-259 96 -259 273v449h89v-451c0 -113 47 -188 170 -188s170 75 170 188v451h89v-449z" />
    <glyph glyph-name="V" unicode="V" horiz-adv-x="579" 
d="M575 709l-239 -709h-93l-239 709h92l196 -599l192 599h91z" />
    <glyph glyph-name="W" unicode="W" horiz-adv-x="862" 
d="M830 709l-141 -709h-95l-162 571l-164 -571h-94l-142 709h83l113 -578l164 568h80l164 -567l113 577h81z" />
    <glyph glyph-name="X" unicode="X" horiz-adv-x="584" 
d="M569 0h-99l-180 291l-178 -291h-97l224 358l-220 351h99l178 -287l175 287h95l-221 -351z" />
    <glyph glyph-name="Y" unicode="Y" horiz-adv-x="566" 
d="M566 709l-238 -421v-288h-90v288l-238 421h100l186 -337l185 337h95z" />
    <glyph glyph-name="Z" unicode="Z" horiz-adv-x="612" 
d="M566 0h-523v89l413 537h-409v83h515v-90l-414 -536h418v-83z" />
    <glyph glyph-name="Agrave" unicode="&#xc0;" horiz-adv-x="621" 
d="M613 0h-92l-58 168h-308l-57 -168h-90l250 709h104zM434 252l-126 368l-125 -368h251zM407 802l-31 -47l-185 99l45 71z" />
    <glyph glyph-name="Aacute" unicode="&#xc1;" horiz-adv-x="621" 
d="M613 0h-92l-58 168h-308l-57 -168h-90l250 709h104zM434 252l-126 368l-125 -368h251zM407 853l-185 -99l-30 47l170 123z" />
    <glyph glyph-name="Acircumflex" unicode="&#xc2;" horiz-adv-x="621" 
d="M613 0h-92l-58 168h-308l-57 -168h-90l250 709h104zM434 252l-126 368l-125 -368h251zM332 915l128 -113l-46 -48l-110 98l-108 -98l-46 48l125 113h57z" />
    <glyph glyph-name="Atilde" unicode="&#xc3;" horiz-adv-x="621" 
d="M613 0h-92l-58 168h-308l-57 -168h-90l250 709h104zM434 252l-126 368l-125 -368h251zM466 835c-22 -28 -54 -54 -101 -54c-30 0 -52 10 -72 21c-18 10 -37 21 -59 21c-27 0 -44 -10 -62 -28l-39 42c26 29 56 54 102 54c28 0 49 -11 69 -22s39 -22 62 -22
c26 0 48 13 63 30z" />
    <glyph glyph-name="Adieresis" unicode="&#xc4;" horiz-adv-x="621" 
d="M613 0h-92l-58 168h-308l-57 -168h-90l250 709h104zM434 252l-126 368l-125 -368h251zM442 789h-92v92h92v-92zM266 789h-92v92h92v-92z" />
    <glyph glyph-name="Amacron" unicode="&#x100;" horiz-adv-x="621" 
d="M613 0h-92l-58 168h-308l-57 -168h-90l250 709h104zM434 252l-126 368l-125 -368h251zM449 774h-278v68h278v-68z" />
    <glyph glyph-name="Abreve" unicode="&#x102;" horiz-adv-x="621" 
d="M613 0h-92l-58 168h-308l-57 -168h-90l250 709h104zM434 252l-126 368l-125 -368h251zM475 910c-7 -87 -59 -156 -164 -156s-158 69 -165 156h68c7 -56 38 -92 97 -92s89 36 96 92h68z" />
    <glyph glyph-name="Aring" unicode="&#xc5;" horiz-adv-x="621" 
d="M613 0h-92l-58 168h-308l-57 -168h-90l236 669c-36 21 -56 61 -56 101c0 61 45 118 121 118s122 -57 122 -118c0 -40 -20 -78 -55 -100zM369 770c0 33 -23 62 -60 62s-60 -29 -60 -62s23 -61 60 -61s60 28 60 61zM434 252l-126 368l-125 -368h251z" />
    <glyph glyph-name="Aogonek" unicode="&#x104;" horiz-adv-x="621" 
d="M458 -103c0 68 57 100 64 103h-1l-58 168h-308l-57 -168h-90l250 709h104l251 -709c-42 -16 -80 -46 -80 -87c0 -30 19 -43 50 -43c17 0 30 1 30 1v-58c-7 -2 -17 -6 -40 -7h-10c-60 0 -105 39 -105 91zM434 252l-126 368l-125 -368h251z" />
    <glyph glyph-name="AE" unicode="&#xc6;" horiz-adv-x="914" 
d="M863 0h-428v189h-254l-83 -189h-98l320 709h543v-83h-338v-205h289v-84h-289v-253h338v-84zM435 273v356h-60l-157 -356h217z" />
    <glyph glyph-name="Cacute" unicode="&#x106;" horiz-adv-x="634" 
d="M594 226c-3 -66 -29 -122 -70 -164c-43 -43 -113 -76 -190 -76c-71 0 -141 26 -192 76c-77 75 -89 179 -89 292s12 217 89 292c51 50 121 76 192 76c77 0 146 -30 189 -73c41 -42 67 -96 70 -162h-92c-1 39 -16 73 -39 99c-28 31 -74 52 -128 52c-48 0 -95 -19 -129 -54
c-58 -60 -60 -156 -60 -230s2 -170 60 -230c34 -35 81 -54 129 -54c54 0 101 23 129 54c23 26 38 63 39 102h92zM484 853l-185 -99l-30 47l170 123z" />
    <glyph glyph-name="Ccircumflex" unicode="&#x108;" horiz-adv-x="634" 
d="M594 226c-3 -66 -29 -122 -70 -164c-43 -43 -113 -76 -190 -76c-71 0 -141 26 -192 76c-77 75 -89 179 -89 292s12 217 89 292c51 50 121 76 192 76c77 0 146 -30 189 -73c41 -42 67 -96 70 -162h-92c-1 39 -16 73 -39 99c-28 31 -74 52 -128 52c-48 0 -95 -19 -129 -54
c-58 -60 -60 -156 -60 -230s2 -170 60 -230c34 -35 81 -54 129 -54c54 0 101 23 129 54c23 26 38 63 39 102h92zM360 915l128 -113l-46 -48l-110 98l-108 -98l-46 48l125 113h57z" />
    <glyph glyph-name="Ccaron" unicode="&#x10c;" horiz-adv-x="634" 
d="M594 226c-3 -66 -29 -122 -70 -164c-43 -43 -113 -76 -190 -76c-71 0 -141 26 -192 76c-77 75 -89 179 -89 292s12 217 89 292c51 50 121 76 192 76c77 0 146 -30 189 -73c41 -42 67 -96 70 -162h-92c-1 39 -16 73 -39 99c-28 31 -74 52 -128 52c-48 0 -95 -19 -129 -54
c-58 -60 -60 -156 -60 -230s2 -170 60 -230c34 -35 81 -54 129 -54c54 0 101 23 129 54c23 26 38 63 39 102h92zM488 867l-128 -113h-57l-125 113l48 51l106 -97l108 97z" />
    <glyph glyph-name="Cdotaccent" unicode="&#x10a;" horiz-adv-x="634" 
d="M594 226c-3 -66 -29 -122 -70 -164c-43 -43 -113 -76 -190 -76c-71 0 -141 26 -192 76c-77 75 -89 179 -89 292s12 217 89 292c51 50 121 76 192 76c77 0 146 -30 189 -73c41 -42 67 -96 70 -162h-92c-1 39 -16 73 -39 99c-28 31 -74 52 -128 52c-48 0 -95 -19 -129 -54
c-58 -60 -60 -156 -60 -230s2 -170 60 -230c34 -35 81 -54 129 -54c54 0 101 23 129 54c23 26 38 63 39 102h92zM383 789h-92v92h92v-92z" />
    <glyph glyph-name="Ccedilla" unicode="&#xc7;" horiz-adv-x="634" 
d="M594 226c-3 -66 -29 -122 -70 -164c-43 -43 -113 -76 -190 -76c-71 0 -141 26 -192 76c-77 75 -89 179 -89 292s12 217 89 292c51 50 121 76 192 76c77 0 146 -30 189 -73c41 -42 67 -96 70 -162h-92c-1 39 -16 73 -39 99c-28 31 -74 52 -128 52c-48 0 -95 -19 -129 -54
c-58 -60 -60 -156 -60 -230s2 -170 60 -230c34 -35 81 -54 129 -54c54 0 101 23 129 54c23 26 38 63 39 102h92zM391 -61l-69 -176l-88 41l79 135h78z" />
    <glyph glyph-name="Dcaron" unicode="&#x10e;" horiz-adv-x="677" 
d="M624 355c0 -102 -14 -210 -91 -284c-50 -48 -117 -71 -186 -71h-247v709h247c69 0 136 -24 186 -72c78 -74 91 -180 91 -282zM534 355c0 76 -5 165 -61 223c-33 33 -80 49 -126 49h-158v-545h158c46 0 93 16 126 49c56 57 61 148 61 224zM485 867l-128 -113h-57l-125 113
l48 51l106 -97l108 97z" />
    <glyph glyph-name="Dcroat" unicode="&#x110;" horiz-adv-x="690" 
d="M637 355c0 -102 -14 -210 -91 -284c-50 -48 -117 -71 -186 -71h-247v335h-73v66h73v308h247c69 0 136 -24 186 -72c78 -74 91 -180 91 -282zM547 355c0 76 -5 165 -61 223c-33 33 -80 49 -126 49h-158v-226h146v-66h-146v-253h158c46 0 93 16 126 49c56 57 61 148 61 224
z" />
    <glyph glyph-name="Egrave" unicode="&#xc8;" horiz-adv-x="625" 
d="M574 0h-474v709h474v-82h-385v-216h338v-84h-338v-245h385v-82zM441 807l-31 -47l-185 99l45 71z" />
    <glyph glyph-name="Eacute" unicode="&#xc9;" horiz-adv-x="625" 
d="M574 0h-474v709h474v-82h-385v-216h338v-84h-338v-245h385v-82zM446 853l-185 -99l-30 47l170 123z" />
    <glyph glyph-name="Ecircumflex" unicode="&#xca;" horiz-adv-x="625" 
d="M574 0h-474v709h474v-82h-385v-216h338v-84h-338v-245h385v-82zM363 915l128 -113l-46 -48l-110 98l-108 -98l-46 48l125 113h57z" />
    <glyph glyph-name="Ecaron" unicode="&#x11a;" horiz-adv-x="625" 
d="M574 0h-474v709h474v-82h-385v-216h338v-84h-338v-245h385v-82zM496 867l-128 -113h-57l-125 113l48 51l106 -97l108 97z" />
    <glyph glyph-name="Edieresis" unicode="&#xcb;" horiz-adv-x="625" 
d="M574 0h-474v709h474v-82h-385v-216h338v-84h-338v-245h385v-82zM477 789h-92v92h92v-92zM301 789h-92v92h92v-92z" />
    <glyph glyph-name="Emacron" unicode="&#x112;" horiz-adv-x="625" 
d="M574 0h-474v709h474v-82h-385v-216h338v-84h-338v-245h385v-82zM479 774h-278v68h278v-68z" />
    <glyph glyph-name="Edotaccent" unicode="&#x116;" horiz-adv-x="625" 
d="M574 0h-474v709h474v-82h-385v-216h338v-84h-338v-245h385v-82zM385 789h-92v92h92v-92z" />
    <glyph glyph-name="Eogonek" unicode="&#x118;" horiz-adv-x="625" 
d="M418 -103c0 68 57 100 64 103h-382v709h474v-82h-385v-216h338v-84h-338v-245h385v-82h-1c-42 -16 -80 -46 -80 -87c0 -30 19 -43 50 -43c17 0 30 1 30 1v-58c-7 -2 -17 -6 -40 -7h-10c-60 0 -105 39 -105 91z" />
    <glyph glyph-name="Gcircumflex" unicode="&#x11c;" horiz-adv-x="680" 
d="M606 0h-62l-15 85c-35 -58 -113 -99 -193 -99c-71 0 -140 23 -191 73c-72 70 -92 168 -92 295c0 113 15 217 92 292c51 50 120 76 191 76c80 0 154 -28 203 -80c34 -36 58 -81 61 -138h-93c-3 33 -14 56 -32 78c-32 38 -81 56 -139 56c-48 0 -95 -19 -129 -54
c-58 -60 -62 -156 -62 -230c0 -71 5 -173 64 -233c34 -35 79 -51 127 -51c50 0 97 17 129 49c47 46 61 115 61 180h-190v83h270v-382zM365 915l128 -113l-46 -48l-110 98l-108 -98l-46 48l125 113h57z" />
    <glyph glyph-name="Gbreve" unicode="&#x11e;" horiz-adv-x="680" 
d="M606 0h-62l-15 85c-35 -58 -113 -99 -193 -99c-71 0 -140 23 -191 73c-72 70 -92 168 -92 295c0 113 15 217 92 292c51 50 120 76 191 76c80 0 154 -28 203 -80c34 -36 58 -81 61 -138h-93c-3 33 -14 56 -32 78c-32 38 -81 56 -139 56c-48 0 -95 -19 -129 -54
c-58 -60 -62 -156 -62 -230c0 -71 5 -173 64 -233c34 -35 79 -51 127 -51c50 0 97 17 129 49c47 46 61 115 61 180h-190v83h270v-382zM500 910c-7 -87 -59 -156 -164 -156s-158 69 -165 156h68c7 -56 38 -92 97 -92s89 36 96 92h68z" />
    <glyph glyph-name="Gdotaccent" unicode="&#x120;" horiz-adv-x="680" 
d="M606 0h-62l-15 85c-35 -58 -113 -99 -193 -99c-71 0 -140 23 -191 73c-72 70 -92 168 -92 295c0 113 15 217 92 292c51 50 120 76 191 76c80 0 154 -28 203 -80c34 -36 58 -81 61 -138h-93c-3 33 -14 56 -32 78c-32 38 -81 56 -139 56c-48 0 -95 -19 -129 -54
c-58 -60 -62 -156 -62 -230c0 -71 5 -173 64 -233c34 -35 79 -51 127 -51c50 0 97 17 129 49c47 46 61 115 61 180h-190v83h270v-382zM382 789h-92v92h92v-92z" />
    <glyph glyph-name="Gcommaaccent" unicode="&#x122;" horiz-adv-x="680" 
d="M606 0h-62l-15 85c-35 -58 -113 -99 -193 -99c-71 0 -140 23 -191 73c-72 70 -92 168 -92 295c0 113 15 217 92 292c51 50 120 76 191 76c80 0 154 -28 203 -80c34 -36 58 -81 61 -138h-93c-3 33 -14 56 -32 78c-32 38 -81 56 -139 56c-48 0 -95 -19 -129 -54
c-58 -60 -62 -156 -62 -230c0 -71 5 -173 64 -233c34 -35 79 -51 127 -51c50 0 97 17 129 49c47 46 61 115 61 180h-190v83h270v-382zM383 -61v-77c0 -42 -19 -71 -68 -85l-16 30c27 9 38 20 38 50h-39v82h85z" />
    <glyph glyph-name="Hcircumflex" unicode="&#x124;" horiz-adv-x="718" 
d="M618 0h-89v327h-340v-327h-89v709h89v-296h340v296h89v-709zM384 915l128 -113l-46 -48l-110 98l-108 -98l-46 48l125 113h57z" />
    <glyph glyph-name="Hbar" unicode="&#x126;" horiz-adv-x="718" 
d="M618 0h-89v327h-340v-327h-89v490h-59v68h59v151h89v-151h340v151h89v-151h62v-68h-62v-490zM189 413h340v77h-340v-77z" />
    <glyph glyph-name="Igrave" unicode="&#xcc;" horiz-adv-x="291" 
d="M191 0h-91v709h91v-709zM252 802l-31 -47l-185 99l45 71z" />
    <glyph glyph-name="Iacute" unicode="&#xcd;" horiz-adv-x="291" 
d="M191 0h-91v709h91v-709zM256 853l-185 -99l-30 47l170 123z" />
    <glyph glyph-name="Icircumflex" unicode="&#xce;" horiz-adv-x="291" 
d="M191 0h-91v709h91v-709zM172 915l128 -113l-46 -48l-110 98l-108 -98l-46 48l125 113h57z" />
    <glyph glyph-name="Idieresis" unicode="&#xcf;" horiz-adv-x="291" 
d="M191 0h-91v709h91v-709zM280 789h-92v92h92v-92zM104 789h-92v92h92v-92z" />
    <glyph glyph-name="Imacron" unicode="&#x12a;" horiz-adv-x="291" 
d="M191 0h-91v709h91v-709zM284 774h-278v68h278v-68z" />
    <glyph glyph-name="Idotaccent" unicode="&#x130;" horiz-adv-x="291" 
d="M191 0h-91v709h91v-709zM191 789h-92v92h92v-92z" />
    <glyph glyph-name="Iogonek" unicode="&#x12e;" horiz-adv-x="291" 
d="M36 -103c0 68 57 100 64 103v709h91v-709c-42 -16 -80 -46 -80 -87c0 -30 19 -43 50 -43c17 0 30 1 30 1v-58c-7 -2 -17 -6 -40 -7h-10c-60 0 -105 39 -105 91z" />
    <glyph glyph-name="Jcircumflex" unicode="&#x134;" horiz-adv-x="493" 
d="M413 198c0 -127 -72 -211 -200 -211c-65 0 -113 24 -148 60c-41 42 -57 96 -57 168h90c0 -49 7 -88 37 -116c19 -18 44 -29 78 -29c81 0 111 50 111 128v511h89v-511zM352 915l128 -113l-46 -48l-110 98l-108 -98l-46 48l125 113h57z" />
    <glyph glyph-name="Kcommaaccent" unicode="&#x136;" horiz-adv-x="662" 
d="M649 0h-104l-212 368l-144 -168v-200h-89v709h89v-378l325 378h111l-231 -270zM394 -61v-77c0 -42 -19 -71 -68 -85l-16 30c27 9 38 20 38 50h-39v82h85z" />
    <glyph glyph-name="Lacute" unicode="&#x139;" horiz-adv-x="544" 
d="M530 0h-430v709h89v-626h341v-83zM315 853l-185 -99l-30 47l170 123z" />
    <glyph glyph-name="Lcaron" unicode="&#x13d;" horiz-adv-x="544" 
d="M530 0h-430v709h89v-626h341v-83zM327 772v-85c0 -36 -8 -76 -64 -102l-15 33c31 16 35 33 35 57v6h-33v91h77z" />
    <glyph glyph-name="Lcommaaccent" unicode="&#x13b;" horiz-adv-x="544" 
d="M530 0h-430v709h89v-626h341v-83zM355 -61v-77c0 -42 -19 -71 -68 -85l-16 30c27 9 38 20 38 50h-39v82h85z" />
    <glyph glyph-name="Lslash" unicode="&#x141;" horiz-adv-x="565" 
d="M551 0h-430v296l-65 -40l-33 52l98 61v340h89v-285l127 79l33 -53l-160 -99v-268h341v-83z" />
    <glyph glyph-name="Nacute" unicode="&#x143;" horiz-adv-x="734" 
d="M634 0h-100l-348 570v-570h-86v709h100l348 -572v572h86v-709zM514 853l-185 -99l-30 47l170 123z" />
    <glyph glyph-name="Ncaron" unicode="&#x147;" horiz-adv-x="734" 
d="M634 0h-100l-348 570v-570h-86v709h100l348 -572v572h86v-709zM530 867l-128 -113h-57l-125 113l48 51l106 -97l108 97z" />
    <glyph glyph-name="Ntilde" unicode="&#xd1;" horiz-adv-x="734" 
d="M634 0h-100l-348 570v-570h-86v709h100l348 -572v572h86v-709zM526 827c-22 -28 -54 -54 -101 -54c-30 0 -52 10 -72 21c-18 10 -37 21 -59 21c-27 0 -44 -10 -62 -28l-39 42c26 29 56 54 102 54c28 0 49 -11 69 -22s39 -22 62 -22c26 0 48 13 63 30z" />
    <glyph glyph-name="Ncommaaccent" unicode="&#x145;" horiz-adv-x="734" 
d="M634 0h-100l-348 570v-570h-86v709h100l348 -572v572h86v-709zM420 -61v-77c0 -42 -19 -71 -68 -85l-16 30c27 9 38 20 38 50h-39v82h85z" />
    <glyph glyph-name="Ograve" unicode="&#xd2;" horiz-adv-x="670" 
d="M617 354c0 -113 -14 -217 -91 -292c-51 -50 -120 -76 -191 -76s-140 26 -191 76c-77 75 -91 179 -91 292s14 217 91 292c51 50 120 76 191 76s140 -26 191 -76c77 -75 91 -179 91 -292zM525 354c0 74 -3 170 -61 230c-34 35 -81 53 -129 53s-95 -18 -129 -53
c-58 -60 -61 -156 -61 -230s3 -170 61 -230c34 -35 81 -53 129 -53s95 18 129 53c58 60 61 156 61 230zM441 807l-31 -47l-185 99l45 71z" />
    <glyph glyph-name="Oacute" unicode="&#xd3;" horiz-adv-x="670" 
d="M617 354c0 -113 -14 -217 -91 -292c-51 -50 -120 -76 -191 -76s-140 26 -191 76c-77 75 -91 179 -91 292s14 217 91 292c51 50 120 76 191 76s140 -26 191 -76c77 -75 91 -179 91 -292zM525 354c0 74 -3 170 -61 230c-34 35 -81 53 -129 53s-95 -18 -129 -53
c-58 -60 -61 -156 -61 -230s3 -170 61 -230c34 -35 81 -53 129 -53s95 18 129 53c58 60 61 156 61 230zM442 858l-185 -99l-30 47l170 123z" />
    <glyph glyph-name="Ocircumflex" unicode="&#xd4;" horiz-adv-x="670" 
d="M617 354c0 -113 -14 -217 -91 -292c-51 -50 -120 -76 -191 -76s-140 26 -191 76c-77 75 -91 179 -91 292s14 217 91 292c51 50 120 76 191 76s140 -26 191 -76c77 -75 91 -179 91 -292zM525 354c0 74 -3 170 -61 230c-34 35 -81 53 -129 53s-95 -18 -129 -53
c-58 -60 -61 -156 -61 -230s3 -170 61 -230c34 -35 81 -53 129 -53s95 18 129 53c58 60 61 156 61 230zM366 915l128 -113l-46 -48l-110 98l-108 -98l-46 48l125 113h57z" />
    <glyph glyph-name="Otilde" unicode="&#xd5;" horiz-adv-x="670" 
d="M617 354c0 -113 -14 -217 -91 -292c-51 -50 -120 -76 -191 -76s-140 26 -191 76c-77 75 -91 179 -91 292s14 217 91 292c51 50 120 76 191 76s140 -26 191 -76c77 -75 91 -179 91 -292zM525 354c0 74 -3 170 -61 230c-34 35 -81 53 -129 53s-95 -18 -129 -53
c-58 -60 -61 -156 -61 -230s3 -170 61 -230c34 -35 81 -53 129 -53s95 18 129 53c58 60 61 156 61 230zM502 834c-22 -28 -54 -54 -101 -54c-30 0 -52 10 -72 21c-18 10 -37 21 -59 21c-27 0 -44 -10 -62 -28l-39 42c26 29 56 54 102 54c28 0 49 -11 69 -22s39 -22 62 -22
c26 0 48 13 63 30z" />
    <glyph glyph-name="Odieresis" unicode="&#xd6;" horiz-adv-x="670" 
d="M617 354c0 -113 -14 -217 -91 -292c-51 -50 -120 -76 -191 -76s-140 26 -191 76c-77 75 -91 179 -91 292s14 217 91 292c51 50 120 76 191 76s140 -26 191 -76c77 -75 91 -179 91 -292zM525 354c0 74 -3 170 -61 230c-34 35 -81 53 -129 53s-95 -18 -129 -53
c-58 -60 -61 -156 -61 -230s3 -170 61 -230c34 -35 81 -53 129 -53s95 18 129 53c58 60 61 156 61 230zM472 791h-92v92h92v-92zM296 791h-92v92h92v-92z" />
    <glyph glyph-name="Omacron" unicode="&#x14c;" horiz-adv-x="670" 
d="M617 354c0 -113 -14 -217 -91 -292c-51 -50 -120 -76 -191 -76s-140 26 -191 76c-77 75 -91 179 -91 292s14 217 91 292c51 50 120 76 191 76s140 -26 191 -76c77 -75 91 -179 91 -292zM525 354c0 74 -3 170 -61 230c-34 35 -81 53 -129 53s-95 -18 -129 -53
c-58 -60 -61 -156 -61 -230s3 -170 61 -230c34 -35 81 -53 129 -53s95 18 129 53c58 60 61 156 61 230zM474 774h-278v68h278v-68z" />
    <glyph glyph-name="Ohungarumlaut" unicode="&#x150;" horiz-adv-x="670" 
d="M617 354c0 -113 -14 -217 -91 -292c-51 -50 -120 -76 -191 -76s-140 26 -191 76c-77 75 -91 179 -91 292s14 217 91 292c51 50 120 76 191 76s140 -26 191 -76c77 -75 91 -179 91 -292zM525 354c0 74 -3 170 -61 230c-34 35 -81 53 -129 53s-95 -18 -129 -53
c-58 -60 -61 -156 -61 -230s3 -170 61 -230c34 -35 81 -53 129 -53s95 18 129 53c58 60 61 156 61 230zM591 858l-187 -104l-32 47l172 129zM398 858l-187 -104l-32 47l172 129z" />
    <glyph glyph-name="Oslash" unicode="&#xd8;" horiz-adv-x="670" 
d="M617 354c0 -113 -14 -217 -91 -292c-51 -50 -120 -76 -191 -76c-45 0 -88 10 -127 30l-39 -85l-56 26l43 94l-12 11c-77 75 -91 179 -91 292s14 217 91 292c51 50 120 76 191 76c40 0 80 -8 116 -25l32 71l55 -25l-35 -77c8 -6 16 -13 23 -20c77 -75 91 -179 91 -292z
M525 354c0 73 -3 169 -60 229l-221 -488c27 -16 59 -24 91 -24c48 0 95 18 129 53c58 60 61 156 61 230zM415 619c-25 12 -52 18 -80 18c-48 0 -95 -18 -129 -53c-58 -60 -61 -156 -61 -230c0 -69 3 -157 50 -217z" />
    <glyph glyph-name="OE" unicode="&#x152;" horiz-adv-x="983" 
d="M932 0h-420v65c-39 -49 -102 -78 -187 -78c-87 0 -140 27 -189 77c-72 74 -83 178 -83 291s11 216 83 290c49 50 102 78 189 78c85 0 150 -34 187 -81v67h420v-83h-338v-206h289v-84h-289v-253h338v-83zM507 355c0 86 -6 178 -54 234c-27 31 -67 53 -128 53
c-53 0 -90 -19 -117 -44c-57 -55 -65 -152 -65 -243c0 -87 7 -180 56 -236c27 -31 66 -52 126 -52c56 0 94 18 121 45c55 55 61 152 61 243z" />
    <glyph glyph-name="Racute" unicode="&#x154;" horiz-adv-x="662" 
d="M617 0h-98l-134 295h-196v-295h-89v709h278c83 0 141 -23 180 -63c34 -36 56 -82 56 -144s-20 -104 -54 -140c-21 -22 -51 -39 -85 -50zM522 502c0 90 -60 125 -144 125h-189v-249h189c84 0 144 34 144 124zM458 853l-185 -99l-30 47l170 123z" />
    <glyph glyph-name="Rcaron" unicode="&#x158;" horiz-adv-x="662" 
d="M617 0h-98l-134 295h-196v-295h-89v709h278c83 0 141 -23 180 -63c34 -36 56 -82 56 -144s-20 -104 -54 -140c-21 -22 -51 -39 -85 -50zM522 502c0 90 -60 125 -144 125h-189v-249h189c84 0 144 34 144 124zM487 867l-128 -113h-57l-125 113l48 51l106 -97l108 97z" />
    <glyph glyph-name="Rcommaaccent" unicode="&#x156;" horiz-adv-x="662" 
d="M617 0h-98l-134 295h-196v-295h-89v709h278c83 0 141 -23 180 -63c34 -36 56 -82 56 -144s-20 -104 -54 -140c-21 -22 -51 -39 -85 -50zM522 502c0 90 -60 125 -144 125h-189v-249h189c84 0 144 34 144 124zM389 -61v-77c0 -42 -19 -71 -68 -85l-16 30c27 9 38 20 38 50
h-39v82h85z" />
    <glyph glyph-name="Sacute" unicode="&#x15a;" horiz-adv-x="635" 
d="M585 195c0 -59 -25 -103 -60 -137c-49 -48 -125 -71 -201 -71c-86 0 -155 24 -203 68c-45 42 -76 103 -76 170h93c0 -42 21 -84 50 -112c32 -31 86 -44 136 -44c54 0 100 11 132 41c22 20 36 45 36 83c0 55 -35 101 -119 114l-112 17c-106 16 -189 75 -189 188
c0 53 24 104 62 140c49 46 112 70 186 70c69 0 137 -23 184 -68c43 -41 66 -92 68 -152h-93c-2 35 -15 66 -35 89c-27 31 -70 49 -125 49c-51 0 -95 -14 -126 -49c-18 -21 -29 -45 -29 -77c0 -64 53 -93 106 -100c40 -5 79 -12 118 -18c118 -17 197 -89 197 -201zM455 853
l-185 -99l-30 47l170 123z" />
    <glyph glyph-name="Scircumflex" unicode="&#x15c;" horiz-adv-x="635" 
d="M585 195c0 -59 -25 -103 -60 -137c-49 -48 -125 -71 -201 -71c-86 0 -155 24 -203 68c-45 42 -76 103 -76 170h93c0 -42 21 -84 50 -112c32 -31 86 -44 136 -44c54 0 100 11 132 41c22 20 36 45 36 83c0 55 -35 101 -119 114l-112 17c-106 16 -189 75 -189 188
c0 53 24 104 62 140c49 46 112 70 186 70c69 0 137 -23 184 -68c43 -41 66 -92 68 -152h-93c-2 35 -15 66 -35 89c-27 31 -70 49 -125 49c-51 0 -95 -14 -126 -49c-18 -21 -29 -45 -29 -77c0 -64 53 -93 106 -100c40 -5 79 -12 118 -18c118 -17 197 -89 197 -201zM344 915
l128 -113l-46 -48l-110 98l-108 -98l-46 48l125 113h57z" />
    <glyph glyph-name="Scaron" unicode="&#x160;" horiz-adv-x="635" 
d="M585 195c0 -59 -25 -103 -60 -137c-49 -48 -125 -71 -201 -71c-86 0 -155 24 -203 68c-45 42 -76 103 -76 170h93c0 -42 21 -84 50 -112c32 -31 86 -44 136 -44c54 0 100 11 132 41c22 20 36 45 36 83c0 55 -35 101 -119 114l-112 17c-106 16 -189 75 -189 188
c0 53 24 104 62 140c49 46 112 70 186 70c69 0 137 -23 184 -68c43 -41 66 -92 68 -152h-93c-2 35 -15 66 -35 89c-27 31 -70 49 -125 49c-51 0 -95 -14 -126 -49c-18 -21 -29 -45 -29 -77c0 -64 53 -93 106 -100c40 -5 79 -12 118 -18c118 -17 197 -89 197 -201zM476 867
l-128 -113h-57l-125 113l48 51l106 -97l108 97z" />
    <glyph glyph-name="Scedilla" unicode="&#x15e;" horiz-adv-x="635" 
d="M585 195c0 -59 -25 -103 -60 -137c-49 -48 -125 -71 -201 -71c-86 0 -155 24 -203 68c-45 42 -76 103 -76 170h93c0 -42 21 -84 50 -112c32 -31 86 -44 136 -44c54 0 100 11 132 41c22 20 36 45 36 83c0 55 -35 101 -119 114l-112 17c-106 16 -189 75 -189 188
c0 53 24 104 62 140c49 46 112 70 186 70c69 0 137 -23 184 -68c43 -41 66 -92 68 -152h-93c-2 35 -15 66 -35 89c-27 31 -70 49 -125 49c-51 0 -95 -14 -126 -49c-18 -21 -29 -45 -29 -77c0 -64 53 -93 106 -100c40 -5 79 -12 118 -18c118 -17 197 -89 197 -201zM376 -62
l-69 -176l-88 41l79 135h78z" />
    <glyph glyph-name="Scommaaccent" unicode="&#x218;" horiz-adv-x="635" 
d="M585 195c0 -59 -25 -103 -60 -137c-49 -48 -125 -71 -201 -71c-86 0 -155 24 -203 68c-45 42 -76 103 -76 170h93c0 -42 21 -84 50 -112c32 -31 86 -44 136 -44c54 0 100 11 132 41c22 20 36 45 36 83c0 55 -35 101 -119 114l-112 17c-106 16 -189 75 -189 188
c0 53 24 104 62 140c49 46 112 70 186 70c69 0 137 -23 184 -68c43 -41 66 -92 68 -152h-93c-2 35 -15 66 -35 89c-27 31 -70 49 -125 49c-51 0 -95 -14 -126 -49c-18 -21 -29 -45 -29 -77c0 -64 53 -93 106 -100c40 -5 79 -12 118 -18c118 -17 197 -89 197 -201zM367 -61
v-77c0 -42 -19 -71 -68 -85l-16 30c27 9 38 20 38 50h-39v82h85z" />
    <glyph glyph-name="Tcaron" unicode="&#x164;" horiz-adv-x="538" 
d="M525 626h-211v-626h-90v626h-211v83h512v-83zM422 867l-128 -113h-57l-125 113l48 51l106 -97l108 97z" />
    <glyph glyph-name="Tcommaaccent" unicode="&#x162;" horiz-adv-x="538" 
d="M525 626h-211v-626h-90v626h-211v83h512v-83zM312 -61v-77c0 -42 -19 -71 -68 -85l-16 30c27 9 38 20 38 50h-39v82h85z" />
    <glyph glyph-name="Ugrave" unicode="&#xd9;" horiz-adv-x="678" 
d="M598 260c0 -177 -100 -273 -259 -273s-259 96 -259 273v449h89v-451c0 -113 47 -188 170 -188s170 75 170 188v451h89v-449zM433 802l-31 -47l-185 99l45 71z" />
    <glyph glyph-name="Uacute" unicode="&#xda;" horiz-adv-x="678" 
d="M598 260c0 -177 -100 -273 -259 -273s-259 96 -259 273v449h89v-451c0 -113 47 -188 170 -188s170 75 170 188v451h89v-449zM454 853l-185 -99l-30 47l170 123z" />
    <glyph glyph-name="Ucircumflex" unicode="&#xdb;" horiz-adv-x="678" 
d="M598 260c0 -177 -100 -273 -259 -273s-259 96 -259 273v449h89v-451c0 -113 47 -188 170 -188s170 75 170 188v451h89v-449zM375 915l128 -113l-46 -48l-110 98l-108 -98l-46 48l125 113h57z" />
    <glyph glyph-name="Udieresis" unicode="&#xdc;" horiz-adv-x="678" 
d="M598 260c0 -177 -100 -273 -259 -273s-259 96 -259 273v449h89v-451c0 -113 47 -188 170 -188s170 75 170 188v451h89v-449zM484 790h-92v92h92v-92zM308 790h-92v92h92v-92z" />
    <glyph glyph-name="Umacron" unicode="&#x16a;" horiz-adv-x="678" 
d="M598 260c0 -177 -100 -273 -259 -273s-259 96 -259 273v449h89v-451c0 -113 47 -188 170 -188s170 75 170 188v451h89v-449zM478 774h-278v68h278v-68z" />
    <glyph glyph-name="Ubreve" unicode="&#x16c;" horiz-adv-x="678" 
d="M598 260c0 -177 -100 -273 -259 -273s-259 96 -259 273v449h89v-451c0 -113 47 -188 170 -188s170 75 170 188v451h89v-449zM503 910c-7 -87 -59 -156 -164 -156s-158 69 -165 156h68c7 -56 38 -92 97 -92s89 36 96 92h68z" />
    <glyph glyph-name="Uring" unicode="&#x16e;" horiz-adv-x="678" 
d="M598 260c0 -177 -100 -273 -259 -273s-259 96 -259 273v449h89v-451c0 -113 47 -188 170 -188s170 75 170 188v451h89v-449zM449 809c0 -55 -41 -107 -110 -107s-110 52 -110 107s41 107 110 107s110 -52 110 -107zM393 809c0 30 -21 56 -54 56s-55 -26 -55 -56
s22 -55 55 -55s54 25 54 55z" />
    <glyph glyph-name="Uhungarumlaut" unicode="&#x170;" horiz-adv-x="678" 
d="M598 260c0 -177 -100 -273 -259 -273s-259 96 -259 273v449h89v-451c0 -113 47 -188 170 -188s170 75 170 188v451h89v-449zM595 858l-187 -104l-32 47l172 129zM402 858l-187 -104l-32 47l172 129z" />
    <glyph glyph-name="Uogonek" unicode="&#x172;" horiz-adv-x="678" 
d="M598 260c0 -82 -22 -147 -60 -192c-29 -36 -74 -95 -74 -152c0 -35 19 -46 50 -46c17 0 30 3 30 3v-60c-7 -2 -17 -6 -40 -7h-10c-58 0 -105 35 -105 91c0 55 26 87 54 107c-31 -11 -66 -17 -104 -17c-159 0 -259 96 -259 273v449h89v-451c0 -113 47 -188 170 -188
s170 75 170 188v451h89v-449z" />
    <glyph glyph-name="Wgrave" unicode="&#x1e80;" horiz-adv-x="862" 
d="M830 709l-141 -709h-95l-162 571l-164 -571h-94l-142 709h83l113 -578l164 568h80l164 -567l113 577h81zM548 807l-31 -47l-185 99l45 71z" />
    <glyph glyph-name="Wcircumflex" unicode="&#x174;" horiz-adv-x="862" 
d="M830 709l-141 -709h-95l-162 571l-164 -571h-94l-142 709h83l113 -578l164 568h80l164 -567l113 577h81zM465 915l128 -113l-46 -48l-110 98l-108 -98l-46 48l125 113h57z" />
    <glyph glyph-name="Yacute" unicode="&#xdd;" horiz-adv-x="566" 
d="M397 847l-186 -98l-29 48l170 123zM566 709l-238 -421v-288h-90v288l-238 421h100l186 -337l185 337h95z" />
    <glyph glyph-name="Ycircumflex" unicode="&#x176;" horiz-adv-x="566" 
d="M566 709l-238 -421v-288h-90v288l-238 421h100l186 -337l185 337h95zM314 915l128 -113l-46 -48l-110 98l-108 -98l-46 48l125 113h57z" />
    <glyph glyph-name="Ydieresis" unicode="&#x178;" horiz-adv-x="566" 
d="M566 709l-238 -421v-288h-90v288l-238 421h100l186 -337l185 337h95zM419 778h-92v92h92v-92zM243 778h-92v92h92v-92z" />
    <glyph glyph-name="Zacute" unicode="&#x179;" horiz-adv-x="612" 
d="M566 0h-523v89l413 537h-409v83h515v-90l-414 -536h418v-83zM427 853l-185 -99l-30 47l170 123z" />
    <glyph glyph-name="Zcaron" unicode="&#x17d;" horiz-adv-x="612" 
d="M566 0h-523v89l413 537h-409v83h515v-90l-414 -536h418v-83zM460 867l-128 -113h-57l-125 113l48 51l106 -97l108 97z" />
    <glyph glyph-name="Zdotaccent" unicode="&#x17b;" horiz-adv-x="612" 
d="M566 0h-523v89l413 537h-409v83h515v-90l-414 -536h418v-83zM354 789h-92v92h92v-92z" />
    <glyph glyph-name="Eth" unicode="&#xd0;" horiz-adv-x="690" 
d="M637 355c0 -102 -14 -210 -91 -284c-50 -48 -117 -71 -186 -71h-247v335h-73v66h73v308h247c69 0 136 -24 186 -72c78 -74 91 -180 91 -282zM547 355c0 76 -5 165 -61 223c-33 33 -80 49 -126 49h-158v-226h146v-66h-146v-253h158c46 0 93 16 126 49c56 57 61 148 61 224
z" />
    <glyph glyph-name="Thorn" unicode="&#xde;" horiz-adv-x="607" 
d="M577 363c0 -69 -21 -123 -59 -161s-95 -59 -173 -59h-155v-143h-90v710h90v-133h154c83 0 141 -23 179 -64c34 -37 54 -88 54 -150zM485 363c0 84 -43 133 -143 133h-152v-272h153c103 0 142 47 142 139z" />
    <glyph glyph-name="a" unicode="a" horiz-adv-x="559" 
d="M517 5c-18 -9 -35 -12 -56 -12c-45 0 -73 34 -73 77h-2c-29 -51 -92 -83 -163 -83c-116 0 -174 78 -174 156c0 65 42 150 180 158l154 9v37c0 25 -3 56 -26 77c-17 16 -42 26 -83 26c-46 0 -75 -13 -92 -30c-16 -16 -25 -36 -25 -61h-83c1 46 18 79 44 106
c34 36 94 54 156 54c98 0 154 -42 178 -97c10 -23 15 -49 15 -78v-245c0 -27 11 -34 28 -34c9 0 22 3 22 3v-63zM383 214v30l-136 -8c-51 -3 -111 -27 -111 -91c0 -45 28 -87 100 -87c39 0 77 13 104 41c30 31 43 73 43 115z" />
    <glyph glyph-name="b" unicode="b" horiz-adv-x="595" 
d="M541 252c0 -84 -25 -161 -73 -210c-33 -34 -81 -55 -143 -55c-57 0 -122 28 -151 79l-6 -66h-75v722h85v-275c27 46 92 72 147 72c59 0 106 -20 139 -51c51 -49 77 -129 77 -216zM454 253c0 93 -30 194 -143 194c-37 0 -62 -15 -82 -33c-42 -37 -56 -98 -56 -161
s14 -124 56 -161c20 -18 45 -33 82 -33c113 0 143 101 143 194z" />
    <glyph glyph-name="c" unicode="c" horiz-adv-x="532" 
d="M486 170c-4 -54 -25 -95 -59 -128c-36 -35 -84 -55 -146 -55c-91 0 -149 42 -185 95c-27 40 -42 95 -42 171s15 131 42 171c36 53 93 95 184 95c60 0 109 -20 144 -54c34 -33 56 -75 60 -130h-86c-4 35 -17 60 -36 79c-20 19 -49 31 -82 31c-39 0 -66 -14 -88 -33
c-40 -34 -51 -97 -51 -159s11 -125 51 -159c22 -19 49 -33 88 -33c35 0 66 13 86 34c18 19 30 42 34 75h86z" />
    <glyph glyph-name="d" unicode="d" horiz-adv-x="595" 
d="M502 0h-75l-6 66c-29 -51 -94 -79 -151 -79c-62 0 -110 21 -143 55c-48 49 -73 126 -73 210c0 87 26 167 77 216c33 31 80 51 139 51c55 0 120 -26 147 -72v275h85v-722zM422 253c0 63 -14 124 -56 161c-20 18 -45 33 -82 33c-113 0 -143 -101 -143 -194
s30 -194 143 -194c37 0 62 15 82 33c42 37 56 98 56 161z" />
    <glyph glyph-name="e" unicode="e" horiz-adv-x="551" 
d="M501 276l-1 -51h-358c0 -46 18 -96 49 -127c23 -23 54 -36 93 -36c40 0 73 11 94 33c14 14 23 28 30 55h83c-7 -50 -37 -97 -78 -125c-36 -24 -81 -38 -129 -38c-71 0 -129 30 -168 76c-42 49 -63 116 -63 188c0 61 11 115 39 162c36 61 103 106 191 106
c65 0 117 -25 154 -65c41 -45 65 -110 64 -178zM414 298c0 38 -11 76 -31 103c-21 28 -55 46 -100 46c-92 0 -137 -75 -139 -149h270z" />
    <glyph glyph-name="f" unicode="f" horiz-adv-x="366" 
d="M361 652c-27 3 -48 8 -84 8c-45 0 -72 -28 -72 -69v-85h146v-72h-146v-434h-85v434h-92v72h92v90c0 76 59 136 147 136c35 0 66 -4 94 -9v-71z" />
    <glyph glyph-name="g" unicode="g" horiz-adv-x="540" 
d="M525 -75c0 -44 -19 -78 -43 -102c-49 -48 -133 -59 -204 -59c-67 0 -143 10 -192 59c-21 21 -36 50 -36 90c0 53 32 92 72 112c-34 13 -59 46 -59 85c0 45 29 80 67 98c-37 33 -58 83 -58 131c0 55 19 93 48 123c35 36 83 57 150 57c48 0 85 -11 116 -30
c17 45 56 71 104 71c8 0 17 -1 25 -2v-69c-5 1 -12 1 -19 1c-33 0 -57 -18 -62 -46c21 -27 33 -60 33 -105c0 -48 -18 -90 -46 -121c-33 -36 -84 -60 -151 -60c-34 0 -53 3 -85 14c-19 -6 -41 -21 -43 -45c-3 -44 44 -49 76 -50c33 -1 100 0 100 0c60 0 127 -12 167 -53
c24 -24 40 -57 40 -99zM384 339c0 64 -43 111 -115 111c-69 0 -115 -47 -115 -111s43 -113 115 -113c69 0 115 49 115 113zM442 -75c0 86 -95 80 -159 80h-92c-34 -11 -64 -41 -64 -80c0 -23 8 -40 21 -53c33 -33 91 -35 135 -35c43 0 106 4 138 36c13 13 21 30 21 52z" />
    <glyph glyph-name="h" unicode="h" horiz-adv-x="587" 
d="M502 0h-85v321c0 76 -31 121 -111 121c-49 0 -88 -32 -110 -78c-17 -37 -18 -90 -18 -129v-235h-85v722h85v-283c30 52 91 80 148 80c115 0 176 -69 176 -186v-333z" />
    <glyph glyph-name="i" unicode="i" horiz-adv-x="273" 
d="M186 622h-99v100h99v-100zM180 0h-87v506h87v-506z" />
    <glyph glyph-name="j" unicode="j" horiz-adv-x="283" 
d="M196 622h-99v100h99v-100zM190 -71c0 -88 -43 -143 -139 -143c-26 0 -41 2 -66 10v73c21 -4 42 -5 63 -5c38 0 57 30 57 64v578h85v-577z" />
    <glyph glyph-name="k" unicode="k" horiz-adv-x="545" 
d="M529 0h-96l-158 244l-97 -108v-136h-85v722h85v-471l229 255h103l-180 -200z" />
    <glyph glyph-name="l" unicode="l" horiz-adv-x="291" 
d="M256 0c0 0 -19 -6 -60 -6c-74 0 -106 44 -106 124v604h85v-599c0 -34 11 -52 46 -52c28 0 35 1 35 1v-72z" />
    <glyph glyph-name="m" unicode="m" horiz-adv-x="878" 
d="M793 0h-85v322c0 71 -23 120 -103 120c-32 0 -57 -13 -77 -34c-34 -35 -43 -86 -43 -139v-269h-85v322c0 71 -21 120 -102 120c-36 0 -65 -18 -86 -45c-25 -32 -34 -86 -34 -128v-269h-85v506h74l8 -72c27 57 85 85 142 85c75 0 129 -34 151 -96c27 63 92 96 156 96
c115 0 169 -74 169 -186v-333z" />
    <glyph glyph-name="n" unicode="n" horiz-adv-x="585" 
d="M502 0h-85v321c0 76 -31 121 -111 121c-49 0 -88 -32 -110 -78c-17 -37 -18 -90 -18 -129v-235h-85v506h74l7 -76c26 58 96 89 153 89c115 0 175 -69 175 -186v-333z" />
    <glyph glyph-name="o" unicode="o" horiz-adv-x="558" 
d="M504 253c0 -80 -17 -153 -72 -207c-37 -36 -89 -59 -153 -59s-116 23 -153 59c-55 54 -72 127 -72 207s17 153 72 207c37 36 89 59 153 59s116 -23 153 -59c55 -54 72 -127 72 -207zM417 253c0 59 -11 120 -47 157c-21 21 -51 36 -91 36s-70 -15 -91 -36
c-36 -37 -47 -98 -47 -157s11 -120 47 -157c21 -21 51 -36 91 -36s70 15 91 36c36 37 47 98 47 157z" />
    <glyph glyph-name="p" unicode="p" horiz-adv-x="595" 
d="M541 253c0 -87 -26 -167 -77 -216c-33 -31 -80 -51 -139 -51c-55 0 -120 26 -147 72v-275h-85v722h75l6 -66c29 51 94 79 151 79c62 0 110 -21 143 -55c48 -49 73 -126 73 -210zM454 252c0 93 -30 194 -143 194c-37 0 -62 -15 -82 -33c-42 -37 -56 -98 -56 -161
s14 -124 56 -161c20 -18 45 -33 82 -33c113 0 143 101 143 194z" />
    <glyph glyph-name="q" unicode="q" horiz-adv-x="595" 
d="M502 -217h-85v275c-27 -46 -92 -72 -147 -72c-59 0 -106 20 -139 51c-51 49 -77 129 -77 216c0 84 25 161 73 210c33 34 81 55 143 55c57 0 122 -28 151 -79l6 66h75v-722zM422 252c0 63 -14 124 -56 161c-20 18 -45 33 -82 33c-113 0 -143 -101 -143 -194
s30 -194 143 -194c37 0 62 15 82 33c42 37 56 98 56 161z" />
    <glyph glyph-name="r" unicode="r" horiz-adv-x="384" 
d="M366 423c-15 3 -32 4 -47 4c-40 0 -73 -18 -96 -40c-41 -39 -46 -109 -46 -162v-225h-84v506h75l7 -89c26 62 87 92 151 92c13 0 27 -1 40 -3v-83z" />
    <glyph glyph-name="s" unicode="s" horiz-adv-x="521" 
d="M468 147c0 -44 -16 -78 -40 -103c-39 -40 -99 -57 -165 -57c-63 0 -121 15 -164 57c-31 30 -49 73 -49 116h85c1 -35 17 -61 41 -79c23 -17 59 -23 91 -23c35 0 67 6 93 28c14 11 25 32 25 55c0 38 -27 65 -79 72l-114 15c-76 12 -124 59 -124 136c0 39 19 76 42 99
c33 34 86 56 149 56c67 0 127 -21 161 -64c22 -27 36 -56 36 -97h-85c-1 26 -14 50 -29 63c-21 19 -49 27 -83 27c-20 0 -35 0 -59 -10c-32 -13 -51 -40 -51 -68c0 -42 26 -60 68 -66c28 -4 68 -8 122 -17c72 -12 129 -64 129 -140z" />
    <glyph glyph-name="t" unicode="t" horiz-adv-x="385" 
d="M355 7c-23 -6 -54 -14 -101 -14c-109 0 -139 69 -139 137v303h-98v73h98v129l85 20v-149h150v-73h-150v-293c0 -49 21 -69 68 -69c36 0 87 9 87 9v-73z" />
    <glyph glyph-name="u" unicode="u" horiz-adv-x="582" 
d="M489 0h-74l-7 77c-26 -58 -91 -89 -150 -89c-115 0 -173 69 -173 186v332h85v-320c0 -76 28 -121 108 -121c34 0 62 15 84 38c32 33 42 88 42 140v263h85v-506z" />
    <glyph glyph-name="v" unicode="v" horiz-adv-x="486" 
d="M474 506l-183 -506h-92l-187 506h89l146 -406l141 406h86z" />
    <glyph glyph-name="w" unicode="w" horiz-adv-x="767" 
d="M729 506l-131 -506h-82l-132 387l-135 -387h-81l-130 506h84l97 -382l129 376h73l127 -376l98 382h83z" />
    <glyph glyph-name="x" unicode="x" horiz-adv-x="498" 
d="M481 0h-102l-133 199l-132 -199h-97l172 258l-170 248h100l132 -191l127 191h98l-171 -248z" />
    <glyph glyph-name="y" unicode="y" horiz-adv-x="498" 
d="M488 506l-228 -610c-24 -65 -61 -108 -137 -108c-42 0 -70 8 -77 10v74s27 -8 60 -8c36 0 62 13 76 51l32 85l-202 506h96l149 -399l142 399h89z" />
    <glyph glyph-name="z" unicode="z" horiz-adv-x="501" 
d="M453 0h-400v75l294 357h-294v74h397v-75l-293 -357h296v-74z" />
    <glyph glyph-name="agrave" unicode="&#xe0;" horiz-adv-x="559" 
d="M517 5c-18 -9 -35 -12 -56 -12c-45 0 -73 34 -73 77h-2c-29 -51 -92 -83 -163 -83c-116 0 -174 78 -174 156c0 65 42 150 180 158l154 9v37c0 25 -3 56 -26 77c-17 16 -42 26 -83 26c-46 0 -75 -13 -92 -30c-16 -16 -25 -36 -25 -61h-83c1 46 18 79 44 106
c34 36 94 54 156 54c98 0 154 -42 178 -97c10 -23 15 -49 15 -78v-245c0 -27 11 -34 28 -34c9 0 22 3 22 3v-63zM383 214v30l-136 -8c-51 -3 -111 -27 -111 -91c0 -45 28 -87 100 -87c39 0 77 13 104 41c30 31 43 73 43 115zM355 554l-185 100l45 71l170 -124z" />
    <glyph glyph-name="aacute" unicode="&#xe1;" horiz-adv-x="559" 
d="M517 5c-18 -9 -35 -12 -56 -12c-45 0 -73 34 -73 77h-2c-29 -51 -92 -83 -163 -83c-116 0 -174 78 -174 156c0 65 42 150 180 158l154 9v37c0 25 -3 56 -26 77c-17 16 -42 26 -83 26c-46 0 -75 -13 -92 -30c-16 -16 -25 -36 -25 -61h-83c1 46 18 79 44 106
c34 36 94 54 156 54c98 0 154 -42 178 -97c10 -23 15 -49 15 -78v-245c0 -27 11 -34 28 -34c9 0 22 3 22 3v-63zM383 214v30l-136 -8c-51 -3 -111 -27 -111 -91c0 -45 28 -87 100 -87c39 0 77 13 104 41c30 31 43 73 43 115zM379 654l-185 -99l-30 47l170 123z" />
    <glyph glyph-name="acircumflex" unicode="&#xe2;" horiz-adv-x="559" 
d="M517 5c-18 -9 -35 -12 -56 -12c-45 0 -73 34 -73 77h-2c-29 -51 -92 -83 -163 -83c-116 0 -174 78 -174 156c0 65 42 150 180 158l154 9v37c0 25 -3 56 -26 77c-17 16 -42 26 -83 26c-46 0 -75 -13 -92 -30c-16 -16 -25 -36 -25 -61h-83c1 46 18 79 44 106
c34 36 94 54 156 54c98 0 154 -42 178 -97c10 -23 15 -49 15 -78v-245c0 -27 11 -34 28 -34c9 0 22 3 22 3v-63zM383 214v30l-136 -8c-51 -3 -111 -27 -111 -91c0 -45 28 -87 100 -87c39 0 77 13 104 41c30 31 43 73 43 115zM299 712l111 -117l-48 -44l-90 94l-88 -94
l-50 44l110 117h55z" />
    <glyph glyph-name="atilde" unicode="&#xe3;" horiz-adv-x="559" 
d="M517 5c-18 -9 -35 -12 -56 -12c-45 0 -73 34 -73 77h-2c-29 -51 -92 -83 -163 -83c-116 0 -174 78 -174 156c0 65 42 150 180 158l154 9v37c0 25 -3 56 -26 77c-17 16 -42 26 -83 26c-46 0 -75 -13 -92 -30c-16 -16 -25 -36 -25 -61h-83c1 46 18 79 44 106
c34 36 94 54 156 54c98 0 154 -42 178 -97c10 -23 15 -49 15 -78v-245c0 -27 11 -34 28 -34c9 0 22 3 22 3v-63zM383 214v30l-136 -8c-51 -3 -111 -27 -111 -91c0 -45 28 -87 100 -87c39 0 77 13 104 41c30 31 43 73 43 115zM443 647c-22 -28 -54 -54 -101 -54
c-30 0 -52 10 -72 21c-18 10 -37 21 -59 21c-27 0 -44 -10 -62 -28l-39 42c26 29 56 54 102 54c28 0 49 -11 69 -22s39 -22 62 -22c26 0 48 13 63 30z" />
    <glyph glyph-name="adieresis" unicode="&#xe4;" horiz-adv-x="559" 
d="M517 5c-18 -9 -35 -12 -56 -12c-45 0 -73 34 -73 77h-2c-29 -51 -92 -83 -163 -83c-116 0 -174 78 -174 156c0 65 42 150 180 158l154 9v37c0 25 -3 56 -26 77c-17 16 -42 26 -83 26c-46 0 -75 -13 -92 -30c-16 -16 -25 -36 -25 -61h-83c1 46 18 79 44 106
c34 36 94 54 156 54c98 0 154 -42 178 -97c10 -23 15 -49 15 -78v-245c0 -27 11 -34 28 -34c9 0 22 3 22 3v-63zM383 214v30l-136 -8c-51 -3 -111 -27 -111 -91c0 -45 28 -87 100 -87c39 0 77 13 104 41c30 31 43 73 43 115zM413 602h-92v92h92v-92zM237 602h-92v92h92v-92z
" />
    <glyph glyph-name="amacron" unicode="&#x101;" horiz-adv-x="559" 
d="M517 5c-18 -9 -35 -12 -56 -12c-45 0 -73 34 -73 77h-2c-29 -51 -92 -83 -163 -83c-116 0 -174 78 -174 156c0 65 42 150 180 158l154 9v37c0 25 -3 56 -26 77c-17 16 -42 26 -83 26c-46 0 -75 -13 -92 -30c-16 -16 -25 -36 -25 -61h-83c1 46 18 79 44 106
c34 36 94 54 156 54c98 0 154 -42 178 -97c10 -23 15 -49 15 -78v-245c0 -27 11 -34 28 -34c9 0 22 3 22 3v-63zM383 214v30l-136 -8c-51 -3 -111 -27 -111 -91c0 -45 28 -87 100 -87c39 0 77 13 104 41c30 31 43 73 43 115zM418 588h-278v68h278v-68z" />
    <glyph glyph-name="abreve" unicode="&#x103;" horiz-adv-x="559" 
d="M517 5c-18 -9 -35 -12 -56 -12c-45 0 -73 34 -73 77h-2c-29 -51 -92 -83 -163 -83c-116 0 -174 78 -174 156c0 65 42 150 180 158l154 9v37c0 25 -3 56 -26 77c-17 16 -42 26 -83 26c-46 0 -75 -13 -92 -30c-16 -16 -25 -36 -25 -61h-83c1 46 18 79 44 106
c34 36 94 54 156 54c98 0 154 -42 178 -97c10 -23 15 -49 15 -78v-245c0 -27 11 -34 28 -34c9 0 22 3 22 3v-63zM383 214v30l-136 -8c-51 -3 -111 -27 -111 -91c0 -45 28 -87 100 -87c39 0 77 13 104 41c30 31 43 73 43 115zM444 710c-7 -87 -59 -156 -164 -156
s-158 69 -165 156h68c7 -56 38 -92 97 -92s89 36 96 92h68z" />
    <glyph glyph-name="aring" unicode="&#xe5;" horiz-adv-x="559" 
d="M517 5c-18 -9 -35 -12 -56 -12c-45 0 -73 34 -73 77h-2c-29 -51 -92 -83 -163 -83c-116 0 -174 78 -174 156c0 65 42 150 180 158l154 9v37c0 25 -3 56 -26 77c-17 16 -42 26 -83 26c-46 0 -75 -13 -92 -30c-16 -16 -25 -36 -25 -61h-83c1 46 18 79 44 106
c34 36 94 54 156 54c98 0 154 -42 178 -97c10 -23 15 -49 15 -78v-245c0 -27 11 -34 28 -34c9 0 22 3 22 3v-63zM383 214v30l-136 -8c-51 -3 -111 -27 -111 -91c0 -45 28 -87 100 -87c39 0 77 13 104 41c30 31 43 73 43 115zM390 671c0 -55 -41 -107 -110 -107
s-110 52 -110 107s41 107 110 107s110 -52 110 -107zM334 671c0 30 -21 56 -54 56s-55 -26 -55 -56s22 -55 55 -55s54 25 54 55z" />
    <glyph glyph-name="aogonek" unicode="&#x105;" horiz-adv-x="559" 
d="M517 0c-42 -16 -80 -46 -80 -87c0 -30 19 -43 50 -43c17 0 30 1 30 1v-58c-7 -2 -17 -6 -40 -7h-10c-60 0 -105 39 -105 91c0 69 60 101 65 103c-25 12 -39 39 -39 70h-2c-29 -51 -92 -83 -163 -83c-116 0 -174 78 -174 156c0 65 42 150 180 158l154 9v37
c0 25 -3 56 -26 77c-17 16 -42 26 -83 26c-46 0 -75 -13 -92 -30c-16 -16 -25 -36 -25 -61h-83c1 46 18 79 44 106c34 36 94 54 156 54c98 0 154 -42 178 -97c10 -23 15 -49 15 -78v-245c0 -27 11 -34 28 -34c9 0 22 3 22 3v-68zM383 214v30l-136 -8
c-51 -3 -111 -27 -111 -91c0 -45 28 -87 100 -87c39 0 77 13 104 41c30 31 43 73 43 115z" />
    <glyph glyph-name="ae" unicode="&#xe6;" horiz-adv-x="847" 
d="M797 230l-342 -1c-1 -87 34 -173 136 -173c49 0 100 29 114 92h84c-7 -50 -27 -88 -65 -120c-37 -31 -73 -43 -132 -43c-80 0 -148 33 -179 97c-33 -58 -93 -96 -182 -96c-58 0 -106 19 -139 52c-26 27 -43 62 -43 107c0 92 76 150 162 151l162 2v54c0 68 -44 98 -107 98
c-64 0 -110 -28 -114 -91h-83c5 116 101 162 198 162c59 0 127 -23 162 -75c33 46 83 73 158 73c86 0 135 -34 171 -89c31 -47 39 -100 39 -174v-26zM711 296c-1 47 -10 85 -33 113c-19 24 -47 41 -92 41c-38 0 -66 -15 -87 -37c-28 -29 -42 -71 -42 -117h254zM376 234
l-145 -1c-52 0 -96 -32 -96 -87c0 -56 42 -87 95 -87c39 0 79 11 105 37c43 43 41 84 41 138z" />
    <glyph glyph-name="cacute" unicode="&#x107;" horiz-adv-x="532" 
d="M486 170c-4 -54 -25 -95 -59 -128c-36 -35 -84 -55 -146 -55c-91 0 -149 42 -185 95c-27 40 -42 95 -42 171s15 131 42 171c36 53 93 95 184 95c60 0 109 -20 144 -54c34 -33 56 -75 60 -130h-86c-4 35 -17 60 -36 79c-20 19 -49 31 -82 31c-39 0 -66 -14 -88 -33
c-40 -34 -51 -97 -51 -159s11 -125 51 -159c22 -19 49 -33 88 -33c35 0 66 13 86 34c18 19 30 42 34 75h86zM436 650l-185 -99l-30 47l170 123z" />
    <glyph glyph-name="ccircumflex" unicode="&#x109;" horiz-adv-x="532" 
d="M486 170c-4 -54 -25 -95 -59 -128c-36 -35 -84 -55 -146 -55c-91 0 -149 42 -185 95c-27 40 -42 95 -42 171s15 131 42 171c36 53 93 95 184 95c60 0 109 -20 144 -54c34 -33 56 -75 60 -130h-86c-4 35 -17 60 -36 79c-20 19 -49 31 -82 31c-39 0 -66 -14 -88 -33
c-40 -34 -51 -97 -51 -159s11 -125 51 -159c22 -19 49 -33 88 -33c35 0 66 13 86 34c18 19 30 42 34 75h86zM302 712l111 -117l-48 -44l-90 94l-88 -94l-50 44l110 117h55z" />
    <glyph glyph-name="ccaron" unicode="&#x10d;" horiz-adv-x="532" 
d="M486 170c-4 -54 -25 -95 -59 -128c-36 -35 -84 -55 -146 -55c-91 0 -149 42 -185 95c-27 40 -42 95 -42 171s15 131 42 171c36 53 93 95 184 95c60 0 109 -20 144 -54c34 -33 56 -75 60 -130h-86c-4 35 -17 60 -36 79c-20 19 -49 31 -82 31c-39 0 -66 -14 -88 -33
c-40 -34 -51 -97 -51 -159s11 -125 51 -159c22 -19 49 -33 88 -33c35 0 66 13 86 34c18 19 30 42 34 75h86zM411 674l-111 -117h-55l-110 117l50 44l88 -94l90 94z" />
    <glyph glyph-name="cdotaccent" unicode="&#x10b;" horiz-adv-x="532" 
d="M486 170c-4 -54 -25 -95 -59 -128c-36 -35 -84 -55 -146 -55c-91 0 -149 42 -185 95c-27 40 -42 95 -42 171s15 131 42 171c36 53 93 95 184 95c60 0 109 -20 144 -54c34 -33 56 -75 60 -130h-86c-4 35 -17 60 -36 79c-20 19 -49 31 -82 31c-39 0 -66 -14 -88 -33
c-40 -34 -51 -97 -51 -159s11 -125 51 -159c22 -19 49 -33 88 -33c35 0 66 13 86 34c18 19 30 42 34 75h86zM322 599h-92v92h92v-92z" />
    <glyph glyph-name="ccedilla" unicode="&#xe7;" horiz-adv-x="532" 
d="M486 170c-4 -54 -25 -95 -59 -128c-36 -35 -84 -55 -146 -55c-91 0 -149 42 -185 95c-27 40 -42 95 -42 171s15 131 42 171c36 53 93 95 184 95c60 0 109 -20 144 -54c34 -33 56 -75 60 -130h-86c-4 35 -17 60 -36 79c-20 19 -49 31 -82 31c-39 0 -66 -14 -88 -33
c-40 -34 -51 -97 -51 -159s11 -125 51 -159c22 -19 49 -33 88 -33c35 0 66 13 86 34c18 19 30 42 34 75h86zM337 -62l-66 -171l-86 40l77 131h75z" />
    <glyph glyph-name="dcaron" unicode="&#x10f;" horiz-adv-x="595" 
d="M502 0h-75l-6 66c-29 -51 -94 -79 -151 -79c-62 0 -110 21 -143 55c-48 49 -73 126 -73 210c0 87 26 167 77 216c33 31 80 51 139 51c55 0 120 -26 147 -72v275h85v-722zM422 253c0 63 -14 124 -56 161c-20 18 -45 33 -82 33c-113 0 -143 -101 -143 -194
s30 -194 143 -194c37 0 62 15 82 33c42 37 56 98 56 161zM609 722v-85c0 -36 -8 -76 -64 -102l-15 33c31 16 35 33 35 57v6h-33v91h77z" />
    <glyph glyph-name="dcroat" unicode="&#x111;" horiz-adv-x="595" 
d="M502 0h-75l-6 66c-29 -51 -94 -79 -151 -79c-62 0 -110 21 -143 55c-48 49 -73 126 -73 210c0 87 26 167 77 216c33 31 80 51 139 51c55 0 120 -26 147 -72v131h-163v63h163v81h85v-81h60v-63h-60v-578zM422 253c0 63 -14 124 -56 161c-20 18 -45 33 -82 33
c-113 0 -143 -101 -143 -194s30 -194 143 -194c37 0 62 15 82 33c42 37 56 98 56 161z" />
    <glyph glyph-name="egrave" unicode="&#xe8;" horiz-adv-x="551" 
d="M501 276l-1 -51h-358c0 -46 18 -96 49 -127c23 -23 54 -36 93 -36c40 0 73 11 94 33c14 14 23 28 30 55h83c-7 -50 -37 -97 -78 -125c-36 -24 -81 -38 -129 -38c-71 0 -129 30 -168 76c-42 49 -63 116 -63 188c0 61 11 115 39 162c36 61 103 106 191 106
c65 0 117 -25 154 -65c41 -45 65 -110 64 -178zM414 298c0 38 -11 76 -31 103c-21 28 -55 46 -100 46c-92 0 -137 -75 -139 -149h270zM363 556l-185 99l45 71l170 -123z" />
    <glyph glyph-name="eacute" unicode="&#xe9;" horiz-adv-x="551" 
d="M501 276l-1 -51h-358c0 -46 18 -96 49 -127c23 -23 54 -36 93 -36c40 0 73 11 94 33c14 14 23 28 30 55h83c-7 -50 -37 -97 -78 -125c-36 -24 -81 -38 -129 -38c-71 0 -129 30 -168 76c-42 49 -63 116 -63 188c0 61 11 115 39 162c36 61 103 106 191 106
c65 0 117 -25 154 -65c41 -45 65 -110 64 -178zM414 298c0 38 -11 76 -31 103c-21 28 -55 46 -100 46c-92 0 -137 -75 -139 -149h270zM394 652l-185 -99l-30 47l170 123z" />
    <glyph glyph-name="ecircumflex" unicode="&#xea;" horiz-adv-x="551" 
d="M501 276l-1 -51h-358c0 -46 18 -96 49 -127c23 -23 54 -36 93 -36c40 0 73 11 94 33c14 14 23 28 30 55h83c-7 -50 -37 -97 -78 -125c-36 -24 -81 -38 -129 -38c-71 0 -129 30 -168 76c-42 49 -63 116 -63 188c0 61 11 115 39 162c36 61 103 106 191 106
c65 0 117 -25 154 -65c41 -45 65 -110 64 -178zM414 298c0 38 -11 76 -31 103c-21 28 -55 46 -100 46c-92 0 -137 -75 -139 -149h270zM311 712l111 -117l-48 -44l-90 94l-88 -94l-50 44l110 117h55z" />
    <glyph glyph-name="ecaron" unicode="&#x11b;" horiz-adv-x="551" 
d="M501 276l-1 -51h-358c0 -46 18 -96 49 -127c23 -23 54 -36 93 -36c40 0 73 11 94 33c14 14 23 28 30 55h83c-7 -50 -37 -97 -78 -125c-36 -24 -81 -38 -129 -38c-71 0 -129 30 -168 76c-42 49 -63 116 -63 188c0 61 11 115 39 162c36 61 103 106 191 106
c65 0 117 -25 154 -65c41 -45 65 -110 64 -178zM414 298c0 38 -11 76 -31 103c-21 28 -55 46 -100 46c-92 0 -137 -75 -139 -149h270zM416 674l-111 -117h-55l-110 117l50 44l88 -94l90 94z" />
    <glyph glyph-name="edieresis" unicode="&#xeb;" horiz-adv-x="551" 
d="M501 276l-1 -51h-358c0 -46 18 -96 49 -127c23 -23 54 -36 93 -36c40 0 73 11 94 33c14 14 23 28 30 55h83c-7 -50 -37 -97 -78 -125c-36 -24 -81 -38 -129 -38c-71 0 -129 30 -168 76c-42 49 -63 116 -63 188c0 61 11 115 39 162c36 61 103 106 191 106
c65 0 117 -25 154 -65c41 -45 65 -110 64 -178zM414 298c0 38 -11 76 -31 103c-21 28 -55 46 -100 46c-92 0 -137 -75 -139 -149h270zM419 599h-92v92h92v-92zM243 599h-92v92h92v-92z" />
    <glyph glyph-name="emacron" unicode="&#x113;" horiz-adv-x="551" 
d="M501 276l-1 -51h-358c0 -46 18 -96 49 -127c23 -23 54 -36 93 -36c40 0 73 11 94 33c14 14 23 28 30 55h83c-7 -50 -37 -97 -78 -125c-36 -24 -81 -38 -129 -38c-71 0 -129 30 -168 76c-42 49 -63 116 -63 188c0 61 11 115 39 162c36 61 103 106 191 106
c65 0 117 -25 154 -65c41 -45 65 -110 64 -178zM414 298c0 38 -11 76 -31 103c-21 28 -55 46 -100 46c-92 0 -137 -75 -139 -149h270zM424 588h-278v68h278v-68z" />
    <glyph glyph-name="edotaccent" unicode="&#x117;" horiz-adv-x="551" 
d="M501 276l-1 -51h-358c0 -46 18 -96 49 -127c23 -23 54 -36 93 -36c40 0 73 11 94 33c14 14 23 28 30 55h83c-7 -50 -37 -97 -78 -125c-36 -24 -81 -38 -129 -38c-71 0 -129 30 -168 76c-42 49 -63 116 -63 188c0 61 11 115 39 162c36 61 103 106 191 106
c65 0 117 -25 154 -65c41 -45 65 -110 64 -178zM414 298c0 38 -11 76 -31 103c-21 28 -55 46 -100 46c-92 0 -137 -75 -139 -149h270zM321 599h-92v92h92v-92z" />
    <glyph glyph-name="eogonek" unicode="&#x119;" horiz-adv-x="551" 
d="M501 276l-1 -51h-358c0 -46 18 -96 49 -127c23 -23 54 -36 93 -36c40 0 73 11 94 33c14 14 23 28 30 55h83c-5 -36 -22 -70 -46 -97c-28 -36 -62 -87 -62 -137c0 -35 19 -46 50 -46c17 0 30 3 30 3v-60c-7 -2 -17 -6 -40 -7h-10c-58 0 -105 35 -105 91c0 50 21 80 46 101
c-22 -7 -46 -11 -70 -11c-71 0 -129 30 -168 76c-42 49 -63 116 -63 188c0 61 11 115 39 162c36 61 103 106 191 106c65 0 117 -25 154 -65c41 -45 65 -110 64 -178zM414 298c0 38 -11 76 -31 103c-21 28 -55 46 -100 46c-92 0 -137 -75 -139 -149h270z" />
    <glyph glyph-name="gcircumflex" unicode="&#x11d;" horiz-adv-x="540" 
d="M525 -75c0 -44 -19 -78 -43 -102c-49 -48 -133 -59 -204 -59c-67 0 -143 10 -192 59c-21 21 -36 50 -36 90c0 53 32 92 72 112c-34 13 -59 46 -59 85c0 45 29 80 67 98c-37 33 -58 83 -58 131c0 55 19 93 48 123c35 36 83 57 150 57c48 0 85 -11 116 -30
c17 45 56 71 104 71c8 0 17 -1 25 -2v-69c-5 1 -12 1 -19 1c-33 0 -57 -18 -62 -46c21 -27 33 -60 33 -105c0 -48 -18 -90 -46 -121c-33 -36 -84 -60 -151 -60c-34 0 -53 3 -85 14c-19 -6 -41 -21 -43 -45c-3 -44 44 -49 76 -50c33 -1 100 0 100 0c60 0 127 -12 167 -53
c24 -24 40 -57 40 -99zM384 339c0 64 -43 111 -115 111c-69 0 -115 -47 -115 -111s43 -113 115 -113c69 0 115 49 115 113zM442 -75c0 86 -95 80 -159 80h-92c-34 -11 -64 -41 -64 -80c0 -23 8 -40 21 -53c33 -33 91 -35 135 -35c43 0 106 4 138 36c13 13 21 30 21 52z
M296 712l111 -117l-48 -44l-90 94l-88 -94l-50 44l110 117h55z" />
    <glyph glyph-name="gbreve" unicode="&#x11f;" horiz-adv-x="540" 
d="M525 -75c0 -44 -19 -78 -43 -102c-49 -48 -133 -59 -204 -59c-67 0 -143 10 -192 59c-21 21 -36 50 -36 90c0 53 32 92 72 112c-34 13 -59 46 -59 85c0 45 29 80 67 98c-37 33 -58 83 -58 131c0 55 19 93 48 123c35 36 83 57 150 57c48 0 85 -11 116 -30
c17 45 56 71 104 71c8 0 17 -1 25 -2v-69c-5 1 -12 1 -19 1c-33 0 -57 -18 -62 -46c21 -27 33 -60 33 -105c0 -48 -18 -90 -46 -121c-33 -36 -84 -60 -151 -60c-34 0 -53 3 -85 14c-19 -6 -41 -21 -43 -45c-3 -44 44 -49 76 -50c33 -1 100 0 100 0c60 0 127 -12 167 -53
c24 -24 40 -57 40 -99zM384 339c0 64 -43 111 -115 111c-69 0 -115 -47 -115 -111s43 -113 115 -113c69 0 115 49 115 113zM442 -75c0 86 -95 80 -159 80h-92c-34 -11 -64 -41 -64 -80c0 -23 8 -40 21 -53c33 -33 91 -35 135 -35c43 0 106 4 138 36c13 13 21 30 21 52z
M434 710c-7 -87 -59 -156 -164 -156s-158 69 -165 156h68c7 -56 38 -92 97 -92s89 36 96 92h68z" />
    <glyph glyph-name="gdotaccent" unicode="&#x121;" horiz-adv-x="540" 
d="M525 -75c0 -44 -19 -78 -43 -102c-49 -48 -133 -59 -204 -59c-67 0 -143 10 -192 59c-21 21 -36 50 -36 90c0 53 32 92 72 112c-34 13 -59 46 -59 85c0 45 29 80 67 98c-37 33 -58 83 -58 131c0 55 19 93 48 123c35 36 83 57 150 57c48 0 85 -11 116 -30
c17 45 56 71 104 71c8 0 17 -1 25 -2v-69c-5 1 -12 1 -19 1c-33 0 -57 -18 -62 -46c21 -27 33 -60 33 -105c0 -48 -18 -90 -46 -121c-33 -36 -84 -60 -151 -60c-34 0 -53 3 -85 14c-19 -6 -41 -21 -43 -45c-3 -44 44 -49 76 -50c33 -1 100 0 100 0c60 0 127 -12 167 -53
c24 -24 40 -57 40 -99zM384 339c0 64 -43 111 -115 111c-69 0 -115 -47 -115 -111s43 -113 115 -113c69 0 115 49 115 113zM442 -75c0 86 -95 80 -159 80h-92c-34 -11 -64 -41 -64 -80c0 -23 8 -40 21 -53c33 -33 91 -35 135 -35c43 0 106 4 138 36c13 13 21 30 21 52z
M316 599h-92v92h92v-92z" />
    <glyph glyph-name="gcommaaccent" unicode="&#x123;" horiz-adv-x="540" 
d="M525 -75c0 -44 -19 -78 -43 -102c-49 -48 -133 -59 -204 -59c-67 0 -143 10 -192 59c-21 21 -36 50 -36 90c0 53 32 92 72 112c-34 13 -59 46 -59 85c0 45 29 80 67 98c-37 33 -58 83 -58 131c0 55 19 93 48 123c35 36 83 57 150 57c48 0 85 -11 116 -30
c17 45 56 71 104 71c8 0 17 -1 25 -2v-69c-5 1 -12 1 -19 1c-33 0 -57 -18 -62 -46c21 -27 33 -60 33 -105c0 -48 -18 -90 -46 -121c-33 -36 -84 -60 -151 -60c-34 0 -53 3 -85 14c-19 -6 -41 -21 -43 -45c-3 -44 44 -49 76 -50c33 -1 100 0 100 0c60 0 127 -12 167 -53
c24 -24 40 -57 40 -99zM384 339c0 64 -43 111 -115 111c-69 0 -115 -47 -115 -111s43 -113 115 -113c69 0 115 49 115 113zM442 -75c0 86 -95 80 -159 80h-92c-34 -11 -64 -41 -64 -80c0 -23 8 -40 21 -53c33 -33 91 -35 135 -35c43 0 106 4 138 36c13 13 21 30 21 52z
M228 557v77c0 42 19 71 68 85l16 -30c-27 -9 -38 -20 -38 -50h39v-82h-85z" />
    <glyph glyph-name="hcircumflex" unicode="&#x125;" horiz-adv-x="587" 
d="M502 0h-85v321c0 76 -31 121 -111 121c-49 0 -88 -32 -110 -78c-17 -37 -18 -90 -18 -129v-235h-85v722h85v-283c30 52 91 80 148 80c115 0 176 -69 176 -186v-333zM180 886l111 -117l-48 -44l-90 94l-88 -94l-50 44l110 117h55z" />
    <glyph glyph-name="hbar" unicode="&#x127;" horiz-adv-x="587" 
d="M502 0h-85v321c0 76 -31 121 -111 121c-49 0 -88 -32 -110 -78c-17 -37 -18 -90 -18 -129v-235h-85v568h-58v63h58v91h85v-91h163v-63h-163v-129c30 52 91 80 148 80c115 0 176 -69 176 -186v-333z" />
    <glyph glyph-name="igrave" unicode="&#xec;" horiz-adv-x="273" 
d="M178 0h-86v506h86v-506zM193 550l-185 99l45 71l170 -123z" />
    <glyph glyph-name="iacute" unicode="&#xed;" horiz-adv-x="273" 
d="M166 0h-86v506h86v-506zM251 650l-185 -99l-30 47l170 123z" />
    <glyph glyph-name="icircumflex" unicode="&#xee;" horiz-adv-x="273" 
d="M182 0h-86v506h86v-506zM163 712l111 -117l-48 -44l-90 94l-88 -94l-50 44l110 117h55z" />
    <glyph glyph-name="idieresis" unicode="&#xef;" horiz-adv-x="273" 
d="M179 0h-86v506h86v-506zM271 599h-92v92h92v-92zM95 599h-92v92h92v-92z" />
    <glyph glyph-name="imacron" unicode="&#x12b;" horiz-adv-x="273" 
d="M180 0h-86v506h86v-506zM276 588h-278v68h278v-68z" />
    <glyph glyph-name="iogonek" unicode="&#x12f;" horiz-adv-x="273" 
d="M25 -103c0 69 60 101 65 103c1 0 2 0 3 1v505h87v-506c-42 -16 -80 -46 -80 -87c0 -30 19 -43 50 -43c17 0 30 1 30 1v-58c-7 -2 -17 -6 -40 -7h-10c-60 0 -105 39 -105 91zM186 622h-99v100h99v-100z" />
    <glyph glyph-name="dotlessi" unicode="&#x131;" horiz-adv-x="273" 
d="M180 0h-86v506h86v-506z" />
    <glyph glyph-name="jcircumflex" unicode="&#x135;" horiz-adv-x="283" 
d="M190 -71c0 -88 -43 -143 -139 -143c-26 0 -41 2 -66 10v73c21 -4 42 -5 63 -5c38 0 57 30 57 64v578h85v-577zM168 712l111 -117l-48 -44l-90 94l-88 -94l-50 44l110 117h55z" />
    <glyph glyph-name="kcommaaccent" unicode="&#x137;" horiz-adv-x="545" 
d="M529 0h-96l-158 244l-97 -108v-136h-85v722h85v-471l229 255h103l-180 -200zM336 -61v-77c0 -42 -19 -71 -68 -85l-16 30c27 9 38 20 38 50h-39v82h85z" />
    <glyph glyph-name="lacute" unicode="&#x13a;" horiz-adv-x="291" 
d="M256 0c0 0 -19 -6 -60 -6c-74 0 -106 44 -106 124v604h85v-599c0 -34 11 -52 46 -52c28 0 35 1 35 1v-72zM293 853l-185 -99l-30 47l170 123z" />
    <glyph glyph-name="lcaron" unicode="&#x13e;" horiz-adv-x="291" 
d="M256 0c0 0 -19 -6 -60 -6c-74 0 -106 44 -106 124v604h85v-599c0 -34 11 -52 46 -52c28 0 35 1 35 1v-72zM282 722v-85c0 -36 -8 -76 -64 -102l-15 33c31 16 35 33 35 57v6h-33v91h77z" />
    <glyph glyph-name="lcommaaccent" unicode="&#x13c;" horiz-adv-x="291" 
d="M256 0c0 0 -19 -6 -60 -6c-74 0 -106 44 -106 124v604h85v-599c0 -34 11 -52 46 -52c28 0 35 1 35 1v-72zM188 -61v-77c0 -42 -19 -71 -68 -85l-16 30c27 9 38 20 38 50h-39v82h85z" />
    <glyph glyph-name="lslash" unicode="&#x142;" horiz-adv-x="333" 
d="M308 466l-113 -70v-273c0 -34 11 -52 46 -52c28 0 35 1 35 1v-72s-19 -6 -60 -6c-74 0 -106 44 -106 124v225l-57 -35l-33 52l90 56v306h85v-253l80 50z" />
    <glyph glyph-name="nacute" unicode="&#x144;" horiz-adv-x="585" 
d="M502 0h-85v321c0 76 -31 121 -111 121c-49 0 -88 -32 -110 -78c-17 -37 -18 -90 -18 -129v-235h-85v506h74l7 -76c26 58 96 89 153 89c115 0 175 -69 175 -186v-333zM440 650l-185 -99l-30 47l170 123z" />
    <glyph glyph-name="ncaron" unicode="&#x148;" horiz-adv-x="585" 
d="M502 0h-85v321c0 76 -31 121 -111 121c-49 0 -88 -32 -110 -78c-17 -37 -18 -90 -18 -129v-235h-85v506h74l7 -76c26 58 96 89 153 89c115 0 175 -69 175 -186v-333zM443 674l-111 -117h-55l-110 117l50 44l88 -94l90 94z" />
    <glyph glyph-name="ntilde" unicode="&#xf1;" horiz-adv-x="585" 
d="M502 0h-85v321c0 76 -31 121 -111 121c-49 0 -88 -32 -110 -78c-17 -37 -18 -90 -18 -129v-235h-85v506h74l7 -76c26 58 96 89 153 89c115 0 175 -69 175 -186v-333zM465 647c-22 -28 -54 -54 -101 -54c-30 0 -52 10 -72 21c-18 10 -37 21 -59 21c-27 0 -44 -10 -62 -28
l-39 42c26 29 56 54 102 54c28 0 49 -11 69 -22s39 -22 62 -22c26 0 48 13 63 30z" />
    <glyph glyph-name="ncommaaccent" unicode="&#x146;" horiz-adv-x="585" 
d="M502 0h-85v321c0 76 -31 121 -111 121c-49 0 -88 -32 -110 -78c-17 -37 -18 -90 -18 -129v-235h-85v506h74l7 -76c26 58 96 89 153 89c115 0 175 -69 175 -186v-333zM345 -61v-77c0 -42 -19 -71 -68 -85l-16 30c27 9 38 20 38 50h-39v82h85z" />
    <glyph glyph-name="ograve" unicode="&#xf2;" horiz-adv-x="558" 
d="M504 253c0 -80 -17 -153 -72 -207c-37 -36 -89 -59 -153 -59s-116 23 -153 59c-55 54 -72 127 -72 207s17 153 72 207c37 36 89 59 153 59s116 -23 153 -59c55 -54 72 -127 72 -207zM417 253c0 59 -11 120 -47 157c-21 21 -51 36 -91 36s-70 -15 -91 -36
c-36 -37 -47 -98 -47 -157s11 -120 47 -157c21 -21 51 -36 91 -36s70 15 91 36c36 37 47 98 47 157zM360 554l-185 99l45 71l170 -123z" />
    <glyph glyph-name="oacute" unicode="&#xf3;" horiz-adv-x="558" 
d="M504 253c0 -80 -17 -153 -72 -207c-37 -36 -89 -59 -153 -59s-116 23 -153 59c-55 54 -72 127 -72 207s17 153 72 207c37 36 89 59 153 59s116 -23 153 -59c55 -54 72 -127 72 -207zM417 253c0 59 -11 120 -47 157c-21 21 -51 36 -91 36s-70 -15 -91 -36
c-36 -37 -47 -98 -47 -157s11 -120 47 -157c21 -21 51 -36 91 -36s70 15 91 36c36 37 47 98 47 157zM389 653l-185 -99l-30 47l170 123z" />
    <glyph glyph-name="ocircumflex" unicode="&#xf4;" horiz-adv-x="558" 
d="M504 253c0 -80 -17 -153 -72 -207c-37 -36 -89 -59 -153 -59s-116 23 -153 59c-55 54 -72 127 -72 207s17 153 72 207c37 36 89 59 153 59s116 -23 153 -59c55 -54 72 -127 72 -207zM417 253c0 59 -11 120 -47 157c-21 21 -51 36 -91 36s-70 -15 -91 -36
c-36 -37 -47 -98 -47 -157s11 -120 47 -157c21 -21 51 -36 91 -36s70 15 91 36c36 37 47 98 47 157zM306 712l111 -117l-48 -44l-90 94l-88 -94l-50 44l110 117h55z" />
    <glyph glyph-name="otilde" unicode="&#xf5;" horiz-adv-x="558" 
d="M504 253c0 -80 -17 -153 -72 -207c-37 -36 -89 -59 -153 -59s-116 23 -153 59c-55 54 -72 127 -72 207s17 153 72 207c37 36 89 59 153 59s116 -23 153 -59c55 -54 72 -127 72 -207zM417 253c0 59 -11 120 -47 157c-21 21 -51 36 -91 36s-70 -15 -91 -36
c-36 -37 -47 -98 -47 -157s11 -120 47 -157c21 -21 51 -36 91 -36s70 15 91 36c36 37 47 98 47 157zM447 653c-22 -28 -54 -54 -101 -54c-30 0 -52 10 -72 21c-18 10 -37 21 -59 21c-27 0 -44 -10 -62 -28l-39 42c26 29 56 54 102 54c28 0 49 -11 69 -22s39 -22 62 -22
c26 0 48 13 63 30z" />
    <glyph glyph-name="odieresis" unicode="&#xf6;" horiz-adv-x="558" 
d="M504 253c0 -80 -17 -153 -72 -207c-37 -36 -89 -59 -153 -59s-116 23 -153 59c-55 54 -72 127 -72 207s17 153 72 207c37 36 89 59 153 59s116 -23 153 -59c55 -54 72 -127 72 -207zM417 253c0 59 -11 120 -47 157c-21 21 -51 36 -91 36s-70 -15 -91 -36
c-36 -37 -47 -98 -47 -157s11 -120 47 -157c21 -21 51 -36 91 -36s70 15 91 36c36 37 47 98 47 157zM422 599h-92v92h92v-92zM246 599h-92v92h92v-92z" />
    <glyph glyph-name="omacron" unicode="&#x14d;" horiz-adv-x="558" 
d="M504 253c0 -80 -17 -153 -72 -207c-37 -36 -89 -59 -153 -59s-116 23 -153 59c-55 54 -72 127 -72 207s17 153 72 207c37 36 89 59 153 59s116 -23 153 -59c55 -54 72 -127 72 -207zM417 253c0 59 -11 120 -47 157c-21 21 -51 36 -91 36s-70 -15 -91 -36
c-36 -37 -47 -98 -47 -157s11 -120 47 -157c21 -21 51 -36 91 -36s70 15 91 36c36 37 47 98 47 157zM418 588h-278v68h278v-68z" />
    <glyph glyph-name="ohungarumlaut" unicode="&#x151;" horiz-adv-x="558" 
d="M504 253c0 -80 -17 -153 -72 -207c-37 -36 -89 -59 -153 -59s-116 23 -153 59c-55 54 -72 127 -72 207s17 153 72 207c37 36 89 59 153 59s116 -23 153 -59c55 -54 72 -127 72 -207zM417 253c0 59 -11 120 -47 157c-21 21 -51 36 -91 36s-70 -15 -91 -36
c-36 -37 -47 -98 -47 -157s11 -120 47 -157c21 -21 51 -36 91 -36s70 15 91 36c36 37 47 98 47 157zM525 657l-187 -104l-32 47l172 129zM332 657l-187 -104l-32 47l172 129z" />
    <glyph glyph-name="oslash" unicode="&#xf8;" horiz-adv-x="558" 
d="M504 253c0 -80 -17 -153 -72 -207c-37 -36 -89 -59 -153 -59c-31 0 -59 5 -84 15l-36 -79l-54 25l38 83l-17 15c-55 54 -72 127 -72 207s17 153 72 207c37 36 89 59 153 59c29 0 55 -5 79 -13l36 79l54 -24l-37 -83c7 -5 14 -11 21 -18c55 -54 72 -127 72 -207zM417 253
c0 56 -9 112 -41 150l-150 -333c15 -6 33 -10 53 -10c40 0 70 15 91 36c36 37 47 98 47 157zM327 438c-14 5 -30 8 -48 8c-40 0 -70 -15 -91 -36c-36 -37 -47 -98 -47 -157c0 -53 9 -107 37 -145z" />
    <glyph glyph-name="oe" unicode="&#x153;" horiz-adv-x="889" 
d="M839 229h-349c0 -34 3 -71 20 -104c20 -39 58 -68 117 -68c49 0 106 28 119 91h85c-7 -50 -28 -86 -66 -118c-37 -31 -78 -45 -137 -45c-78 0 -143 33 -179 94c-9 -14 -17 -26 -26 -35c-36 -37 -87 -60 -151 -60s-114 24 -150 61c-54 55 -68 126 -68 206s13 152 67 207
c36 37 87 61 151 61s115 -25 151 -62c9 -9 16 -19 24 -32l5 8c32 52 94 86 172 86c86 0 139 -37 175 -92c31 -47 40 -98 40 -171v-27zM752 296c-1 46 -12 84 -36 112c-20 23 -50 41 -93 41c-85 0 -131 -70 -132 -153h261zM407 251c0 62 -10 124 -47 162
c-20 20 -47 35 -88 35c-37 0 -62 -13 -82 -31c-41 -37 -51 -103 -51 -166c0 -60 10 -121 45 -159c20 -22 47 -37 88 -37c48 0 77 19 97 45c29 38 38 94 38 151z" />
    <glyph glyph-name="racute" unicode="&#x155;" horiz-adv-x="384" 
d="M366 423c-15 3 -32 4 -47 4c-40 0 -73 -18 -96 -40c-41 -39 -46 -109 -46 -162v-225h-84v506h75l7 -89c26 62 87 92 151 92c13 0 27 -1 40 -3v-83zM388 650l-185 -99l-30 47l170 123z" />
    <glyph glyph-name="rcommaaccent" unicode="&#x157;" horiz-adv-x="384" 
d="M366 423c-15 3 -32 4 -47 4c-40 0 -73 -18 -96 -40c-41 -39 -46 -109 -46 -162v-225h-84v506h75l7 -89c26 62 87 92 151 92c13 0 27 -1 40 -3v-83zM178 -61v-77c0 -42 -19 -71 -68 -85l-16 30c27 9 38 20 38 50h-39v82h85z" />
    <glyph glyph-name="rcaron" unicode="&#x159;" horiz-adv-x="384" 
d="M366 423c-15 3 -32 4 -47 4c-40 0 -73 -18 -96 -40c-41 -39 -46 -109 -46 -162v-225h-84v506h75l7 -89c26 62 87 92 151 92c13 0 27 -1 40 -3v-83zM370 674l-111 -117h-55l-110 117l50 44l88 -94l90 94z" />
    <glyph glyph-name="sacute" unicode="&#x15b;" horiz-adv-x="521" 
d="M468 147c0 -44 -16 -78 -40 -103c-39 -40 -99 -57 -165 -57c-63 0 -121 15 -164 57c-31 30 -49 73 -49 116h85c1 -35 17 -61 41 -79c23 -17 59 -23 91 -23c35 0 67 6 93 28c14 11 25 32 25 55c0 38 -27 65 -79 72l-114 15c-76 12 -124 59 -124 136c0 39 19 76 42 99
c33 34 86 56 149 56c67 0 127 -21 161 -64c22 -27 36 -56 36 -97h-85c-1 26 -14 50 -29 63c-21 19 -49 27 -83 27c-20 0 -35 0 -59 -10c-32 -13 -51 -40 -51 -68c0 -42 26 -60 68 -66c28 -4 68 -8 122 -17c72 -12 129 -64 129 -140zM408 650l-185 -99l-30 47l170 123z" />
    <glyph glyph-name="scircumflex" unicode="&#x15d;" horiz-adv-x="521" 
d="M468 147c0 -44 -16 -78 -40 -103c-39 -40 -99 -57 -165 -57c-63 0 -121 15 -164 57c-31 30 -49 73 -49 116h85c1 -35 17 -61 41 -79c23 -17 59 -23 91 -23c35 0 67 6 93 28c14 11 25 32 25 55c0 38 -27 65 -79 72l-114 15c-76 12 -124 59 -124 136c0 39 19 76 42 99
c33 34 86 56 149 56c67 0 127 -21 161 -64c22 -27 36 -56 36 -97h-85c-1 26 -14 50 -29 63c-21 19 -49 27 -83 27c-20 0 -35 0 -59 -10c-32 -13 -51 -40 -51 -68c0 -42 26 -60 68 -66c28 -4 68 -8 122 -17c72 -12 129 -64 129 -140zM291 712l111 -117l-48 -44l-90 94
l-88 -94l-50 44l110 117h55z" />
    <glyph glyph-name="scaron" unicode="&#x161;" horiz-adv-x="521" 
d="M468 147c0 -44 -16 -78 -40 -103c-39 -40 -99 -57 -165 -57c-63 0 -121 15 -164 57c-31 30 -49 73 -49 116h85c1 -35 17 -61 41 -79c23 -17 59 -23 91 -23c35 0 67 6 93 28c14 11 25 32 25 55c0 38 -27 65 -79 72l-114 15c-76 12 -124 59 -124 136c0 39 19 76 42 99
c33 34 86 56 149 56c67 0 127 -21 161 -64c22 -27 36 -56 36 -97h-85c-1 26 -14 50 -29 63c-21 19 -49 27 -83 27c-20 0 -35 0 -59 -10c-32 -13 -51 -40 -51 -68c0 -42 26 -60 68 -66c28 -4 68 -8 122 -17c72 -12 129 -64 129 -140zM401 674l-111 -117h-55l-110 117l50 44
l88 -94l90 94z" />
    <glyph glyph-name="scedilla" unicode="&#x15f;" horiz-adv-x="521" 
d="M468 147c0 -44 -16 -78 -40 -103c-39 -40 -99 -57 -165 -57c-63 0 -121 15 -164 57c-31 30 -49 73 -49 116h85c1 -35 17 -61 41 -79c23 -17 59 -23 91 -23c35 0 67 6 93 28c14 11 25 32 25 55c0 38 -27 65 -79 72l-114 15c-76 12 -124 59 -124 136c0 39 19 76 42 99
c33 34 86 56 149 56c67 0 127 -21 161 -64c22 -27 36 -56 36 -97h-85c-1 26 -14 50 -29 63c-21 19 -49 27 -83 27c-20 0 -35 0 -59 -10c-32 -13 -51 -40 -51 -68c0 -42 26 -60 68 -66c28 -4 68 -8 122 -17c72 -12 129 -64 129 -140zM319 -62l-69 -176l-88 41l79 135h78z" />
    <glyph glyph-name="scommaaccent" unicode="&#x219;" horiz-adv-x="521" 
d="M468 147c0 -44 -16 -78 -40 -103c-39 -40 -99 -57 -165 -57c-63 0 -121 15 -164 57c-31 30 -49 73 -49 116h85c1 -35 17 -61 41 -79c23 -17 59 -23 91 -23c35 0 67 6 93 28c14 11 25 32 25 55c0 38 -27 65 -79 72l-114 15c-76 12 -124 59 -124 136c0 39 19 76 42 99
c33 34 86 56 149 56c67 0 127 -21 161 -64c22 -27 36 -56 36 -97h-85c-1 26 -14 50 -29 63c-21 19 -49 27 -83 27c-20 0 -35 0 -59 -10c-32 -13 -51 -40 -51 -68c0 -42 26 -60 68 -66c28 -4 68 -8 122 -17c72 -12 129 -64 129 -140zM303 -61v-77c0 -42 -19 -71 -68 -85
l-16 30c27 9 38 20 38 50h-39v82h85z" />
    <glyph glyph-name="germandbls" unicode="&#xdf;" horiz-adv-x="608" 
d="M563 208c0 -135 -94 -214 -222 -214c-28 0 -57 2 -84 8v71c22 -4 45 -5 67 -5c85 0 151 43 151 140c0 108 -71 146 -160 146h-28v74h28c62 0 113 52 113 120c0 66 -39 112 -113 112c-87 0 -119 -68 -119 -157v-503h-86v430h-85v76h86c0 142 76 226 204 226
c122 0 200 -75 200 -184c0 -73 -44 -136 -109 -153c96 -12 157 -94 157 -187z" />
    <glyph glyph-name="tcaron" unicode="&#x165;" horiz-adv-x="385" 
d="M355 7c-23 -6 -54 -14 -101 -14c-109 0 -139 69 -139 137v303h-98v73h98v129l85 20v-149h150v-73h-150v-293c0 -49 21 -69 68 -69c36 0 87 9 87 9v-73zM340 752v-85c0 -36 -8 -76 -64 -102l-15 33c31 16 35 33 35 57v6h-33v91h77z" />
    <glyph glyph-name="tcommaaccent" unicode="&#x163;" horiz-adv-x="385" 
d="M355 7c-23 -6 -54 -14 -101 -14c-109 0 -139 69 -139 137v303h-98v73h98v129l85 20v-149h150v-73h-150v-293c0 -49 21 -69 68 -69c36 0 87 9 87 9v-73zM235 -61v-77c0 -42 -19 -71 -68 -85l-16 30c27 9 38 20 38 50h-39v82h85z" />
    <glyph glyph-name="ugrave" unicode="&#xf9;" horiz-adv-x="582" 
d="M489 0h-74l-7 77c-26 -58 -91 -89 -150 -89c-115 0 -173 69 -173 186v332h85v-320c0 -76 28 -121 108 -121c34 0 62 15 84 38c32 33 42 88 42 140v263h85v-506zM352 553l-185 99l45 71l170 -123z" />
    <glyph glyph-name="uacute" unicode="&#xfa;" horiz-adv-x="582" 
d="M489 0h-74l-7 77c-26 -58 -91 -89 -150 -89c-115 0 -173 69 -173 186v332h85v-320c0 -76 28 -121 108 -121c34 0 62 15 84 38c32 33 42 88 42 140v263h85v-506zM402 652l-185 -99l-30 47l170 123z" />
    <glyph glyph-name="ucircumflex" unicode="&#xfb;" horiz-adv-x="582" 
d="M489 0h-74l-7 77c-26 -58 -91 -89 -150 -89c-115 0 -173 69 -173 186v332h85v-320c0 -76 28 -121 108 -121c34 0 62 15 84 38c32 33 42 88 42 140v263h85v-506zM315 712l111 -117l-48 -44l-90 94l-88 -94l-50 44l110 117h55z" />
    <glyph glyph-name="udieresis" unicode="&#xfc;" horiz-adv-x="582" 
d="M489 0h-74l-7 77c-26 -58 -91 -89 -150 -89c-115 0 -173 69 -173 186v332h85v-320c0 -76 28 -121 108 -121c34 0 62 15 84 38c32 33 42 88 42 140v263h85v-506zM423 599h-92v92h92v-92zM247 599h-92v92h92v-92z" />
    <glyph glyph-name="umacron" unicode="&#x16b;" horiz-adv-x="582" 
d="M489 0h-74l-7 77c-26 -58 -91 -89 -150 -89c-115 0 -173 69 -173 186v332h85v-320c0 -76 28 -121 108 -121c34 0 62 15 84 38c32 33 42 88 42 140v263h85v-506zM430 588h-278v68h278v-68z" />
    <glyph glyph-name="ubreve" unicode="&#x16d;" horiz-adv-x="582" 
d="M489 0h-74l-7 77c-26 -58 -91 -89 -150 -89c-115 0 -173 69 -173 186v332h85v-320c0 -76 28 -121 108 -121c34 0 62 15 84 38c32 33 42 88 42 140v263h85v-506zM458 710c-7 -87 -59 -156 -164 -156s-158 69 -165 156h68c7 -56 38 -92 97 -92s89 36 96 92h68z" />
    <glyph glyph-name="uring" unicode="&#x16f;" horiz-adv-x="582" 
d="M489 0h-74l-7 77c-26 -58 -91 -89 -150 -89c-115 0 -173 69 -173 186v332h85v-320c0 -76 28 -121 108 -121c34 0 62 15 84 38c32 33 42 88 42 140v263h85v-506zM401 670c0 -55 -41 -107 -110 -107s-110 52 -110 107s41 107 110 107s110 -52 110 -107zM345 670
c0 30 -21 56 -54 56s-55 -26 -55 -56s22 -55 55 -55s54 25 54 55z" />
    <glyph glyph-name="uhungarumlaut" unicode="&#x171;" horiz-adv-x="582" 
d="M489 0h-74l-7 77c-26 -58 -91 -89 -150 -89c-115 0 -173 69 -173 186v332h85v-320c0 -76 28 -121 108 -121c34 0 62 15 84 38c32 33 42 88 42 140v263h85v-506zM527 657l-187 -104l-32 47l172 129zM334 657l-187 -104l-32 47l172 129z" />
    <glyph glyph-name="uogonek" unicode="&#x173;" horiz-adv-x="582" 
d="M334 -103c0 69 60 101 65 103c4 2 10 3 15 6l-6 71c-26 -58 -91 -89 -150 -89c-115 0 -173 69 -173 186v332h85v-320c0 -76 28 -121 108 -121c34 0 62 15 84 38c32 33 42 88 42 140v263h85v-506c-42 -16 -80 -46 -80 -87c0 -30 19 -43 50 -43c17 0 30 1 30 1v-58
c-7 -2 -17 -6 -40 -7h-10c-60 0 -105 39 -105 91z" />
    <glyph glyph-name="wgrave" unicode="&#x1e81;" horiz-adv-x="767" 
d="M729 506l-131 -506h-82l-132 387l-135 -387h-81l-130 506h84l97 -382l129 376h73l127 -376l98 382h83zM501 598l-31 -47l-185 99l45 71z" />
    <glyph glyph-name="wcircumflex" unicode="&#x175;" horiz-adv-x="767" 
d="M729 506l-131 -506h-82l-132 387l-135 -387h-81l-130 506h84l97 -382l129 376h73l127 -376l98 382h83zM410 712l111 -117l-48 -44l-90 94l-88 -94l-50 44l110 117h55z" />
    <glyph glyph-name="yacute" unicode="&#xfd;" horiz-adv-x="498" 
d="M381 654l-187 -104l-32 47l172 129zM488 506l-228 -610c-24 -65 -61 -108 -137 -108c-42 0 -70 8 -77 10v74s27 -8 60 -8c36 0 62 13 76 51l32 85l-202 506h96l149 -399l142 399h89z" />
    <glyph glyph-name="ycircumflex" unicode="&#x177;" horiz-adv-x="498" 
d="M488 506l-228 -610c-24 -65 -61 -108 -137 -108c-42 0 -70 8 -77 10v74s27 -8 60 -8c36 0 62 13 76 51l32 85l-202 506h96l149 -399l142 399h89zM286 712l111 -117l-48 -44l-90 94l-88 -94l-50 44l110 117h55z" />
    <glyph glyph-name="ydieresis" unicode="&#xff;" horiz-adv-x="498" 
d="M488 506l-228 -610c-24 -65 -61 -108 -137 -108c-42 0 -70 8 -77 10v74s27 -8 60 -8c36 0 62 13 76 51l32 85l-202 506h96l149 -399l142 399h89zM385 599h-92v92h92v-92zM209 599h-92v92h92v-92z" />
    <glyph glyph-name="zacute" unicode="&#x17a;" horiz-adv-x="501" 
d="M453 0h-400v75l294 357h-294v74h397v-75l-293 -357h296v-74zM378 650l-185 -99l-30 47l170 123z" />
    <glyph glyph-name="zcaron" unicode="&#x17e;" horiz-adv-x="501" 
d="M453 0h-400v75l294 357h-294v74h397v-75l-293 -357h296v-74zM116 670l40 40l98 -103l96 103l40 -40l-112 -118h-50z" />
    <glyph glyph-name="zdotaccent" unicode="&#x17c;" horiz-adv-x="501" 
d="M453 0h-400v75l294 357h-294v74h397v-75l-293 -357h296v-74zM303 599h-92v92h92v-92z" />
    <glyph glyph-name="eth" unicode="&#xf0;" horiz-adv-x="551" 
d="M497 253c0 -80 -13 -153 -68 -207c-37 -36 -90 -59 -154 -59s-116 23 -153 59c-55 54 -68 127 -68 207s13 153 68 207c37 36 89 59 153 59c15 0 43 -4 43 -4l-43 73h-120v59h85l-45 75h89l44 -75h98v-59h-63l83 -142c36 -61 51 -119 51 -193zM412 253
c0 59 -10 120 -46 157c-21 21 -51 36 -91 36s-69 -15 -90 -36c-36 -37 -46 -98 -46 -157s10 -120 46 -157c21 -21 50 -36 90 -36s70 15 91 36c36 37 46 98 46 157z" />
    <glyph glyph-name="thorn" unicode="&#xfe;" horiz-adv-x="590" 
d="M536 252c0 -87 -26 -166 -77 -215c-33 -31 -77 -51 -136 -51c-55 0 -118 26 -145 72v-259h-85v923h85v-275c27 46 90 72 145 72c59 0 103 -20 136 -51c51 -49 77 -129 77 -216zM450 252c0 93 -28 195 -141 195c-37 0 -60 -15 -80 -33c-42 -37 -56 -99 -56 -162
s14 -124 56 -161c20 -18 43 -33 80 -33c113 0 141 101 141 194z" />
    <glyph glyph-name="ampersand" unicode="&#x26;" horiz-adv-x="737" 
d="M675 332h-73c0 -65 -16 -150 -49 -197l121 -135h-108l-61 69c-50 -57 -127 -82 -202 -82c-122 0 -222 78 -222 205c0 74 38 138 100 177l35 22c-46 51 -84 92 -84 166c0 98 76 165 179 165c105 0 181 -64 181 -168c0 -67 -33 -122 -91 -157c-17 -10 -34 -22 -51 -32
l147 -166c28 51 25 147 25 206h153v-73zM451 130l-183 204l-41 -26c-39 -26 -61 -67 -61 -114c0 -75 58 -128 132 -128c62 0 114 14 153 64zM409 553c0 59 -36 97 -100 97c-56 0 -94 -38 -94 -92c0 -57 46 -96 81 -135c56 31 113 56 113 130z" />
    <glyph glyph-name="grave" unicode="`" horiz-adv-x="240" 
d="M226 598l-31 -47l-185 99l45 71z" />
    <glyph glyph-name="grave.cap" horiz-adv-x="240" 
d="M441 807l-31 -47l-185 99l45 71z" />
    <glyph glyph-name="acute" unicode="&#xb4;" horiz-adv-x="244" 
d="M230 650l-185 -99l-30 47l170 123z" />
    <glyph glyph-name="acute.cap" horiz-adv-x="230" 
d="M223 853l-185 -99l-30 47l170 123z" />
    <glyph glyph-name="circumflex" unicode="&#x2c6;" horiz-adv-x="355" 
d="M204 712l111 -117l-48 -44l-90 94l-88 -94l-50 44l110 117h55z" />
    <glyph glyph-name="circumflex.cap" horiz-adv-x="355" 
d="M203 915l128 -113l-46 -48l-110 98l-108 -98l-46 48l125 113h57z" />
    <glyph glyph-name="caron" unicode="&#x2c7;" horiz-adv-x="368" 
d="M325 674l-111 -117h-55l-110 117l50 44l88 -94l90 94z" />
    <glyph glyph-name="caron.cap" horiz-adv-x="230" 
d="M272 867l-128 -113h-57l-125 113l48 51l106 -97l108 97z" />
    <glyph glyph-name="tilde" unicode="&#x2dc;" horiz-adv-x="360" 
d="M346 647c-22 -28 -54 -54 -101 -54c-30 0 -52 10 -72 21c-18 10 -37 21 -59 21c-27 0 -44 -10 -62 -28l-39 42c26 29 56 54 102 54c28 0 49 -11 69 -22s39 -22 62 -22c26 0 48 13 63 30z" />
    <glyph glyph-name="dieresis" unicode="&#xa8;" horiz-adv-x="290" 
d="M279 754h-92v92h92v-92zM103 754h-92v92h92v-92z" />
    <glyph glyph-name="macron" unicode="&#xaf;" horiz-adv-x="296" 
d="M287 588h-278v68h278v-68z" />
    <glyph glyph-name="macron.cap" horiz-adv-x="230" 
d="M254 774h-278v68h278v-68z" />
    <glyph glyph-name="breve" unicode="&#x2d8;" horiz-adv-x="352" 
d="M338 710c-7 -87 -59 -156 -164 -156s-158 69 -165 156h68c7 -56 38 -92 97 -92s89 36 96 92h68z" />
    <glyph glyph-name="breve.cap" horiz-adv-x="230" 
d="M280 910c-7 -87 -59 -156 -164 -156s-158 69 -165 156h68c7 -56 38 -92 97 -92s89 36 96 92h68z" />
    <glyph glyph-name="ring" unicode="&#x2da;" horiz-adv-x="220" 
d="M220 670c0 -55 -41 -107 -110 -107s-110 52 -110 107s41 107 110 107s110 -52 110 -107zM164 670c0 30 -21 56 -54 56s-55 -26 -55 -56s22 -55 55 -55s54 25 54 55z" />
    <glyph glyph-name="ring.cap" horiz-adv-x="230" 
d="M225 809c0 -55 -41 -107 -110 -107s-110 52 -110 107s41 107 110 107s110 -52 110 -107zM169 809c0 30 -21 56 -54 56s-55 -26 -55 -56s22 -55 55 -55s54 25 54 55z" />
    <glyph glyph-name="hungarumlaut" unicode="&#x2dd;" horiz-adv-x="459" 
d="M450 657l-187 -104l-32 47l172 129zM257 657l-187 -104l-32 47l172 129z" />
    <glyph glyph-name="hungarumlaut.cap" horiz-adv-x="230" 
d="M331 858l-187 -104l-32 47l172 129zM138 858l-187 -104l-32 47l172 129z" />
    <glyph glyph-name="dotaccent" unicode="&#x2d9;" horiz-adv-x="275" 
d="M183 599h-92v92h92v-92z" />
    <glyph glyph-name="dotaccent.cap" horiz-adv-x="230" 
d="M161 789h-92v92h92v-92z" />
    <glyph glyph-name="cedilla" unicode="&#xb8;" horiz-adv-x="174" 
d="M165 -62l-69 -176l-88 41l79 135h78z" />
    <glyph glyph-name="ogonek" unicode="&#x2db;" horiz-adv-x="174" 
d="M44 -103c0 69 60 101 65 103c17 7 44 15 49 34l41 -34c-42 -16 -80 -46 -80 -87c0 -30 19 -43 50 -43c17 0 30 1 30 1v-58c-7 -2 -17 -6 -40 -7h-10c-60 0 -105 39 -105 91z" />
    <glyph glyph-name="comma" unicode="," horiz-adv-x="294" 
d="M209 -1c0 -74 -25 -126 -98 -157l-26 47c52 23 64 53 64 110h-62v117h122v-117z" />
    <glyph glyph-name="semicolon" unicode=";" horiz-adv-x="304" 
d="M216 394h-110v112h110v-112zM216 0c0 -73 -21 -119 -90 -148l-23 44c50 22 60 52 60 104h-57v110h110v-110z" />
    <glyph glyph-name="colon" unicode=":" horiz-adv-x="304" 
d="M216 395h-110v111h110v-111zM216 -1h-110v110h110v-110z" />
    <glyph glyph-name="period" unicode="." horiz-adv-x="294" 
d="M206 0h-118v119h118v-119z" />
    <glyph glyph-name="ellipsis" unicode="&#x2026;" horiz-adv-x="805" 
d="M728 0h-115v115h115v-115zM459 0h-114v115h114v-115zM191 0h-114v115h114v-115z" />
    <glyph glyph-name="hyphen" unicode="-" horiz-adv-x="437" 
d="M367 262h-297v79h297v-79z" />
    <glyph glyph-name="exclam" unicode="!" horiz-adv-x="331" 
d="M232 485l-21 -270h-58l-23 270v224h102v-224zM236 0h-106v109h106v-109z" />
    <glyph glyph-name="exclamdown" unicode="&#xa1;" horiz-adv-x="331" 
d="M201 396h-106v109h106v-109zM197 -204h-102v224l23 270h58l21 -270v-224z" />
    <glyph glyph-name="question" unicode="?" horiz-adv-x="504" 
d="M474 535c0 -80 -40 -134 -108 -184c-64 -47 -71 -76 -71 -137v-25h-82v28c0 107 33 142 112 203c40 31 61 62 61 116c0 30 -11 56 -30 76c-22 23 -56 36 -92 36c-87 0 -134 -65 -134 -143h-90c0 113 77 220 224 220c113 0 210 -71 210 -190zM306 0h-106v110h106v-110z
" />
    <glyph glyph-name="questiondown" unicode="&#xbf;" horiz-adv-x="504" 
d="M304 397h-106v110h106v-110zM464 2c0 -113 -77 -220 -224 -220c-113 0 -210 71 -210 190c0 80 40 134 108 184c64 46 71 76 71 137v25h82v-28c0 -107 -33 -142 -112 -203c-40 -31 -61 -63 -61 -116c0 -31 11 -56 30 -76c22 -23 56 -36 92 -36c87 0 134 65 134 143h90z
" />
    <glyph glyph-name="quoteleft" unicode="&#x2018;" horiz-adv-x="274" 
d="M199 672c-52 -23 -64 -53 -64 -110h62v-117h-122v117c0 74 25 126 98 157z" />
    <glyph glyph-name="quoteright" unicode="&#x2019;" horiz-adv-x="264" 
d="M194 588c0 -74 -25 -126 -98 -157l-26 47c52 23 64 53 64 110h-62v117h122v-117z" />
    <glyph glyph-name="quotedblleft" unicode="&#x201c;" horiz-adv-x="472" 
d="M402 672c-52 -23 -64 -53 -64 -110h62v-117h-122v117c0 74 25 126 98 157zM204 672c-52 -23 -64 -53 -64 -110h62v-117h-122v117c0 74 25 126 98 157z" />
    <glyph glyph-name="quotedblright" unicode="&#x201d;" horiz-adv-x="462" 
d="M397 586c0 -74 -25 -126 -98 -157l-26 47c52 23 64 53 64 110h-62v117h122v-117zM199 586c0 -74 -25 -126 -98 -157l-26 47c52 23 64 53 64 110h-62v117h122v-117z" />
    <glyph glyph-name="quotesinglbase" unicode="&#x201a;" horiz-adv-x="279" 
d="M204 -2c0 -74 -25 -126 -98 -157l-26 47c52 23 64 53 64 110h-62v117h122v-117z" />
    <glyph glyph-name="quotedblbase" unicode="&#x201e;" horiz-adv-x="492" 
d="M407 -1c0 -74 -25 -126 -98 -157l-26 47c52 23 64 53 64 110h-62v117h122v-117zM209 -1c0 -74 -25 -126 -98 -157l-26 47c52 23 64 53 64 110h-62v117h122v-117z" />
    <glyph glyph-name="guilsinglleft" unicode="&#x2039;" horiz-adv-x="318" 
d="M263 108l-54 -40l-164 230l164 230l53 -38l-111 -191z" />
    <glyph glyph-name="guilsinglright" unicode="&#x203a;" horiz-adv-x="318" 
d="M273 298l-164 -230l-54 40l112 191l-111 191l53 38z" />
    <glyph glyph-name="guillemotleft" unicode="&#xab;" horiz-adv-x="550" 
d="M495 108l-54 -40l-164 230l164 230l53 -38l-111 -191zM263 108l-54 -40l-164 230l164 230l53 -38l-111 -191z" />
    <glyph glyph-name="guillemotright" unicode="&#xbb;" horiz-adv-x="550" 
d="M505 298l-164 -230l-54 40l112 191l-111 191l53 38zM273 298l-164 -230l-54 40l112 191l-111 191l53 38z" />
    <glyph glyph-name="slash" unicode="/" horiz-adv-x="399" 
d="M393 722l-308 -735h-68l308 735h68z" />
    <glyph glyph-name="bar" unicode="|" horiz-adv-x="269" 
d="M169 -119h-69v877h69v-877z" />
    <glyph glyph-name="endash" unicode="&#x2013;" horiz-adv-x="655" 
d="M585 262h-515v79h515v-79z" />
    <glyph glyph-name="emdash" unicode="&#x2014;" horiz-adv-x="1125" 
d="M1055 262h-985v79h985v-79z" />
    <glyph glyph-name="bullet" unicode="&#x2022;" horiz-adv-x="435" 
d="M345 292c0 -72 -56 -131 -127 -131s-128 59 -128 131s57 131 128 131s127 -59 127 -131z" />
    <glyph glyph-name="periodcentered" unicode="&#xb7;" horiz-adv-x="298" 
d="M208 247h-118v119h118v-119z" />
    <glyph glyph-name="parenleft" unicode="(" horiz-adv-x="303" 
d="M288 -105l-53 -37c-109 123 -168 302 -168 464s59 341 168 464l53 -37c-96 -127 -147 -262 -147 -427s51 -300 147 -427z" />
    <glyph glyph-name="parenright" unicode=")" horiz-adv-x="303" 
d="M236 322c0 -162 -59 -341 -168 -464l-53 37c96 127 147 262 147 427s-51 300 -147 427l53 37c109 -123 168 -302 168 -464z" />
    <glyph glyph-name="bracketleft" unicode="[" horiz-adv-x="311" 
d="M286 -114h-188v871h188v-62h-119v-747h119v-62z" />
    <glyph glyph-name="bracketright" unicode="]" horiz-adv-x="311" 
d="M213 -114h-188v62h118v747h-118v62h188v-871z" />
    <glyph glyph-name="braceleft" unicode="{" horiz-adv-x="349" 
d="M339 -119h-27c-118 0 -156 61 -156 170v156c0 55 -55 72 -101 76v72c41 5 101 28 101 78v154c0 114 32 171 156 171h26v-63h-26c-72 0 -87 -35 -87 -102v-161c0 -62 -35 -97 -94 -108v-2c53 -13 94 -49 94 -106v-161c0 -61 18 -111 88 -111h26v-63z" />
    <glyph glyph-name="braceright" unicode="}" horiz-adv-x="349" 
d="M294 283c-46 -4 -101 -20 -101 -76v-156c0 -109 -38 -170 -156 -170h-27v63h26c70 0 88 50 88 111v161c0 57 41 93 94 106v2c-59 11 -94 46 -94 108v161c0 67 -15 102 -87 102h-26v63h26c124 0 156 -57 156 -171v-154c0 -50 60 -73 101 -78v-72z" />
    <glyph glyph-name="asterisk" unicode="*" horiz-adv-x="533" 
d="M478 512l-159 -41l104 -129l-67 -48l-90 139l-89 -139l-67 50l104 127l-159 41l26 79l153 -60l-8 165h83l-10 -165l154 60z" />
    <glyph glyph-name="dagger" unicode="&#x2020;" horiz-adv-x="566" 
d="M511 433h-186v-558h-83v558h-187v73h187v203h83v-203h186v-73z" />
    <glyph glyph-name="daggerdbl" unicode="&#x2021;" horiz-adv-x="566" 
d="M511 78h-187v-203h-82v203h-187v73h187v282h-187v73h187v203h82v-203h187v-73h-187v-282h187v-73z" />
    <glyph glyph-name="section" unicode="&#xa7;" horiz-adv-x="562" 
d="M502 163c0 -60 -43 -109 -86 -135c26 -30 41 -65 41 -109c0 -47 -19 -87 -47 -114c-32 -31 -78 -48 -131 -48c-55 0 -102 19 -135 54c-30 32 -46 76 -46 125h83c0 -28 6 -56 26 -78c16 -18 44 -29 72 -29c53 0 95 34 95 88c0 34 -16 60 -42 82l-202 171
c-47 39 -65 81 -65 135c0 60 43 109 86 135c-26 30 -41 65 -41 109c0 47 19 85 47 112c32 31 78 50 131 50c55 0 102 -19 135 -54c30 -32 46 -76 46 -125h-83c0 28 -6 56 -26 78c-16 18 -44 29 -72 29c-53 0 -95 -34 -95 -88c0 -34 16 -60 42 -82l202 -171
c47 -39 65 -81 65 -135zM384 236l-184 158c-64 -34 -70 -117 -17 -162l184 -158c64 34 70 117 17 162z" />
    <glyph glyph-name="paragraph" unicode="&#xb6;" horiz-adv-x="657" 
d="M582 640h-69v-765h-73v765h-112v-765h-75v457c-104 0 -188 85 -188 189s84 188 188 188h329v-69z" />
    <glyph glyph-name="asciicircum" unicode="^" horiz-adv-x="542" 
d="M477 405h-89l-117 225l-118 -225h-88l168 317h76z" />
    <glyph glyph-name="asciitilde" unicode="~" horiz-adv-x="639" 
d="M564 311c-63 -65 -99 -78 -147 -78c-37 0 -78 15 -117 34c-25 12 -51 26 -79 26c-27 0 -53 -4 -97 -49l-49 56c62 65 99 78 147 78c28 0 54 -7 80 -17s51 -24 76 -33c13 -5 26 -8 39 -8c27 0 53 3 97 48z" />
    <glyph glyph-name="brokenbar" unicode="&#xa6;" horiz-adv-x="276" 
d="M176 450h-76v309h76v-309zM176 -50h-76v308h76v-308z" />
    <glyph glyph-name="backslash" unicode="\" horiz-adv-x="400" 
d="M383 -13h-70l-308 735h70z" />
    <glyph glyph-name="underscore" unicode="_" horiz-adv-x="545" 
d="M520 -60h-495v60h495v-60z" />
    <glyph glyph-name="quotesingle" unicode="'" horiz-adv-x="265" 
d="M180 586l-21 -153h-53l-21 153v123h95v-123z" />
    <glyph glyph-name="quotedbl" unicode="&#x22;" horiz-adv-x="444" 
d="M354 586l-21 -153h-53l-21 153v123h95v-123zM185 586l-21 -153h-53l-21 153v123h95v-123z" />
    <glyph glyph-name="at" unicode="@" horiz-adv-x="943" 
d="M875 380c0 -121 -56 -269 -202 -269c-50 0 -91 24 -98 76c-20 -45 -71 -74 -120 -74c-103 0 -157 82 -157 191c0 112 65 205 184 205c37 0 78 -20 96 -53l11 42h67l-18 -253c-2 -30 3 -63 41 -63c87 0 115 130 115 197c0 82 -27 144 -72 189c-52 52 -129 80 -220 80
c-93 0 -170 -31 -226 -81c-68 -60 -106 -149 -106 -259c0 -93 33 -175 89 -233c53 -54 127 -86 217 -86s168 12 251 48v-73c-80 -39 -165 -50 -252 -50c-109 0 -201 35 -267 96c-78 72 -123 180 -123 307c0 123 43 221 116 291c74 71 177 114 300 114
c114 0 213 -37 281 -104c58 -57 93 -136 93 -238zM568 325c0 60 -21 115 -90 115c-72 0 -95 -76 -95 -136c0 -55 19 -118 85 -118c79 0 100 73 100 139z" />
    <glyph glyph-name="copyright" unicode="&#xa9;" horiz-adv-x="858" 
d="M790 355c0 -205 -154 -368 -361 -368s-361 162 -361 367s154 368 361 368s361 -162 361 -367zM723 355c0 175 -117 303 -294 303s-294 -129 -294 -304s117 -303 294 -303s294 129 294 304zM601 300c-8 -86 -77 -144 -166 -144c-62 0 -111 29 -141 72
c-28 40 -38 76 -38 126c0 106 65 198 179 198c92 0 159 -60 166 -144h-76c-7 54 -45 79 -90 79c-31 0 -57 -14 -74 -35c-21 -26 -30 -62 -30 -98s8 -72 29 -98c17 -21 44 -35 75 -35c45 0 83 25 90 79h76z" />
    <glyph glyph-name="registered" unicode="&#xae;" horiz-adv-x="858" 
d="M790 355c0 -205 -154 -368 -361 -368s-361 162 -361 367s154 368 361 368s361 -162 361 -367zM723 355c0 175 -117 303 -294 303s-294 -129 -294 -304s117 -303 294 -303s294 129 294 304zM583 169h-73l-64 141h-75v-141h-67v383h141c73 0 136 -42 136 -120
c0 -50 -22 -90 -69 -111zM511 432c0 39 -30 58 -66 58h-75v-118h75c40 0 66 18 66 60z" />
    <glyph glyph-name="trademark" unicode="&#x2122;" horiz-adv-x="837" 
d="M762 318h-68v320l-106 -310h-49l-106 309v-319h-68v391h107l93 -282l93 282h104v-391zM310 647h-111v-329h-68v329h-111v62h290v-62z" />
    <glyph glyph-name="currency" unicode="&#xa4;" 
d="M543 52l-64 -64l-70 78c-37 -26 -80 -41 -129 -41s-91 15 -129 41l-69 -78l-65 64l79 68c-26 37 -42 86 -42 134s16 97 42 134l-79 65l66 66l67 -77c38 26 81 40 130 40s92 -14 129 -40l69 78l65 -67l-78 -65c26 -37 42 -86 42 -134s-16 -97 -42 -134zM425 254
c0 83 -55 150 -145 150c-98 0 -145 -64 -145 -150c0 -78 51 -151 145 -151s145 67 145 151z" />
    <glyph glyph-name="Euro" unicode="&#x20ac;" horiz-adv-x="586" 
d="M571 45c-43 -33 -98 -58 -182 -58c-81 0 -145 29 -196 81s-75 114 -84 179h-79v61h74c-1 13 -1 27 -1 40s0 26 1 39h-74v61h79c9 66 33 128 84 180s115 81 196 81c84 0 139 -25 182 -58l-33 -72c-37 29 -84 50 -149 50c-54 0 -102 -20 -139 -61c-31 -34 -45 -76 -52 -120
h280l-27 -61h-258c-1 -13 -1 -27 -1 -40s0 -26 1 -39h230l-27 -61h-198c6 -43 21 -85 52 -119c37 -41 85 -61 139 -61c65 0 112 21 149 50z" />
    <glyph glyph-name="dollar" unicode="$" 
d="M536 204c0 -57 -25 -102 -58 -135c-41 -40 -98 -62 -160 -68v-91h-58v91c-63 5 -117 27 -159 65c-44 40 -71 97 -71 162h88c0 -41 18 -81 47 -107c26 -24 58 -37 95 -42v243c-12 2 -25 4 -37 5c-98 12 -175 76 -175 180c0 51 23 100 59 134c44 42 95 62 153 67v92h58v-93
c55 -6 105 -27 143 -64c41 -40 64 -87 66 -145h-89c-2 36 -14 67 -36 90c-21 22 -48 37 -84 42v-228l30 -4c108 -14 188 -78 188 -194zM260 408v223c-37 -4 -70 -16 -96 -44c-18 -20 -28 -47 -28 -78c0 -60 41 -90 95 -97zM448 202c0 65 -47 103 -114 111l-16 2v-236
c38 4 69 16 94 40c21 20 36 46 36 83z" />
    <glyph glyph-name="cent" unicode="&#xa2;" 
d="M496 271c-4 -54 -25 -98 -59 -131c-30 -30 -71 -49 -120 -54v-86h-61v87c-70 8 -116 43 -150 92c-31 46 -42 106 -42 172s10 125 41 171c34 50 80 85 151 93v94h61v-93c48 -5 87 -25 117 -53c34 -33 56 -78 60 -133h-86c-4 35 -17 63 -36 82c-14 14 -33 24 -55 28v-378
c24 5 44 15 59 31c18 19 30 45 34 78h86zM256 162v378c-83 -18 -105 -104 -105 -189c0 -86 21 -171 105 -189z" />
    <glyph glyph-name="sterling" unicode="&#xa3;" 
d="M543 157c0 -107 -60 -157 -164 -157h-327v79c52 1 79 28 79 80v172h-80v73h80v109c0 102 68 197 194 197c114 0 188 -79 188 -180h-85c0 62 -40 105 -105 105c-76 0 -106 -54 -106 -122v-109h161v-73h-161v-176c0 -30 -10 -68 -43 -77v-2h208c51 0 76 32 77 81h84z" />
    <glyph glyph-name="florin" unicode="&#x192;" horiz-adv-x="527" 
d="M479 635c-7 1 -25 6 -58 6s-71 -18 -85 -89l-23 -115h141v-75h-156l-67 -339c-17 -86 -79 -138 -148 -138c-38 0 -57 4 -75 8v75c7 -1 25 -6 58 -6s71 18 85 89l62 311h-102v75h117l28 143c17 86 79 138 148 138c38 0 57 -4 75 -8v-75z" />
    <glyph glyph-name="yen" unicode="&#xa5;" 
d="M545 695l-179 -313h132v-61h-174v-91h174v-61h-174v-169h-89v169h-163v61h163v91h-163v61h121l-178 313h94l174 -309l170 309h92z" />
    <glyph glyph-name="ordfeminine" unicode="&#xaa;" horiz-adv-x="484" 
d="M420 315c-15 -8 -28 -10 -44 -10c-34 0 -56 25 -58 56c-23 -37 -68 -60 -121 -60c-89 0 -134 59 -134 120c0 50 33 116 139 122l113 7v26c0 19 -1 43 -18 58c-12 11 -31 19 -62 19c-34 0 -55 -9 -68 -22c-12 -12 -18 -28 -18 -48h-67c2 88 72 126 153 126
c75 0 119 -32 137 -75c8 -18 10 -38 10 -60v-186c0 -20 8 -24 20 -24c6 0 18 2 18 2v-51zM315 475v21l-100 -6c-39 -2 -82 -20 -82 -67c0 -33 20 -64 74 -64c29 0 56 9 76 30c23 23 32 55 32 86z" />
    <glyph glyph-name="ordmasculine" unicode="&#xba;" horiz-adv-x="484" 
d="M413 505c0 -61 -12 -117 -54 -159c-28 -28 -68 -46 -117 -46s-88 18 -116 46c-42 42 -55 98 -55 159s13 116 55 158c28 28 67 46 116 46s89 -18 117 -46c42 -42 54 -97 54 -158zM343 505c0 45 -7 90 -34 118c-15 16 -37 26 -67 26s-51 -10 -66 -26
c-27 -28 -34 -73 -34 -118s7 -91 34 -119c15 -16 36 -26 66 -26s52 10 67 26c27 28 34 74 34 119z" />
    <glyph glyph-name="numbersign" unicode="#" horiz-adv-x="752" 
d="M682 428h-136l-22 -161h125v-77h-136l-26 -189h-78l26 189h-153l-27 -189h-78l26 189h-128v77h139l22 161h-128v78h139l26 189h78l-26 -189h153l27 189h78l-26 -189h125v-78zM468 428h-154l-22 -161h153z" />
    <glyph glyph-name="zero" unicode="0" 
d="M512 348c0 -134 -12 -231 -82 -302c-34 -34 -81 -59 -150 -59s-116 25 -150 59c-70 71 -82 168 -82 302s12 232 82 303c34 34 81 58 150 58s116 -24 150 -58c70 -71 82 -169 82 -303zM423 348c0 94 2 195 -57 251c-20 19 -49 32 -86 32s-66 -13 -86 -32
c-59 -56 -57 -157 -57 -251s-2 -195 57 -251c20 -19 49 -32 86 -32s66 13 86 32c59 56 57 157 57 251z" />
    <glyph glyph-name="one" unicode="1" 
d="M368 0h-87v598l-165 -121v95l170 123h82v-695z" />
    <glyph glyph-name="two" unicode="2" 
d="M489 0h-417v73l281 347c26 33 38 64 38 100c0 71 -41 112 -114 112c-62 0 -118 -34 -118 -126h-88c0 121 82 203 205 203c76 0 135 -31 170 -80c21 -30 32 -64 32 -108c0 -55 -21 -101 -59 -148l-236 -293h306v-80z" />
    <glyph glyph-name="three" unicode="3" 
d="M494 190c0 -54 -19 -104 -53 -140c-37 -39 -90 -63 -168 -63c-67 0 -120 24 -159 63c-36 36 -58 85 -59 149h87c2 -39 13 -72 36 -96c21 -23 51 -39 95 -39c42 0 77 13 101 40c19 21 33 50 33 88c0 85 -58 129 -143 129h-42v79h42c80 0 128 44 128 117
c0 32 -11 60 -33 81c-19 19 -47 34 -85 34s-64 -11 -85 -28c-27 -22 -41 -56 -42 -98h-87c1 69 26 119 67 153c39 32 89 50 149 50c58 0 111 -21 148 -56c35 -32 56 -76 56 -136c0 -65 -45 -133 -102 -157c74 -25 116 -98 116 -170z" />
    <glyph glyph-name="four" unicode="4" 
d="M529 148h-94v-148h-86v148h-319v89l264 458h90l-272 -470h237v207h86v-207h94v-77z" />
    <glyph glyph-name="five" unicode="5" 
d="M510 229c0 -73 -19 -134 -58 -177c-36 -40 -89 -66 -162 -66c-68 0 -123 23 -161 60c-39 38 -61 90 -64 154h85c2 -44 16 -76 39 -99s56 -37 100 -37c48 0 80 18 101 45c23 29 34 69 34 116c0 48 -13 90 -39 119c-22 24 -52 39 -96 39c-47 0 -91 -21 -115 -61h-95l19 373
h384v-77h-311l-11 -222c31 45 87 63 146 63c61 0 108 -22 142 -57c41 -42 62 -104 62 -173z" />
    <glyph glyph-name="six" unicode="6" 
d="M515 224c0 -70 -24 -127 -63 -170c-37 -40 -92 -67 -164 -67c-78 0 -136 39 -170 86c-50 69 -59 166 -59 265s5 202 52 277c33 52 93 94 181 94c59 0 109 -22 144 -57c31 -31 54 -74 56 -125h-86c-2 34 -18 60 -39 78c-20 17 -45 27 -78 27c-44 0 -74 -18 -95 -42
c-44 -50 -48 -140 -49 -213c22 48 88 81 154 81c63 0 113 -22 146 -54c45 -43 70 -107 70 -180zM429 223c0 49 -15 90 -41 119c-21 24 -54 40 -98 40s-76 -18 -97 -42c-26 -29 -39 -68 -39 -117s14 -88 41 -117c22 -24 53 -42 97 -42s74 16 96 40c27 29 41 70 41 119z" />
    <glyph glyph-name="seven" unicode="7" 
d="M496 618l-287 -618h-92l289 618h-356v77h446v-77z" />
    <glyph glyph-name="eight" unicode="8" 
d="M505 191c0 -53 -18 -95 -46 -128c-41 -49 -106 -76 -179 -76s-138 27 -179 76c-28 33 -46 75 -46 128c0 76 45 142 109 171c-57 30 -95 90 -95 157c0 57 23 102 57 134c39 36 93 56 154 56s115 -20 154 -56c34 -32 57 -77 57 -134c0 -67 -38 -127 -95 -157
c64 -29 109 -95 109 -171zM405 519c0 71 -56 115 -125 115s-125 -44 -125 -115c0 -64 45 -120 125 -120s125 56 125 120zM419 195c0 74 -51 130 -139 130s-139 -56 -139 -130c0 -82 58 -133 139 -133s139 51 139 133z" />
    <glyph glyph-name="nine" unicode="9" 
d="M505 358c0 -99 -5 -202 -52 -277c-33 -52 -93 -94 -181 -94c-59 0 -109 21 -144 57c-31 31 -54 74 -56 125h86c2 -34 18 -60 39 -78c20 -18 45 -27 78 -27c44 0 74 18 95 42c44 50 48 140 49 213c-22 -48 -88 -81 -154 -81c-63 0 -113 22 -146 54c-45 43 -70 106 -70 180
c0 70 24 127 63 170c37 40 92 67 164 67c78 0 136 -40 170 -86c50 -69 59 -167 59 -265zM410 473c0 49 -14 88 -41 117c-22 24 -53 42 -97 42s-74 -16 -96 -40c-27 -29 -41 -70 -41 -119s15 -90 41 -119c21 -24 54 -40 98 -40s76 18 97 42c26 29 39 68 39 117z" />
    <glyph glyph-name="onesuperior" unicode="&#xb9;" horiz-adv-x="310" 
d="M218 345h-71v281l-92 -63v79l97 67h66v-364z" />
    <glyph glyph-name="twosuperior" unicode="&#xb2;" horiz-adv-x="412" 
d="M347 343h-274v63l155 130c23 19 39 37 39 67c0 11 -3 19 -8 25c-11 18 -31 25 -55 25c-44 0 -66 -28 -68 -70h-71c2 83 61 133 141 133c72 0 131 -42 131 -117c0 -58 -34 -86 -77 -122l-81 -68h168v-66z" />
    <glyph glyph-name="threesuperior" unicode="&#xb3;" horiz-adv-x="414" 
d="M349 447c0 -30 -10 -52 -25 -69c-28 -30 -70 -42 -117 -42c-44 0 -86 15 -112 45c-17 20 -30 47 -30 80h69c1 -44 31 -68 73 -68c38 0 71 14 71 53c0 33 -20 56 -66 56h-28v57c22 0 32 -2 54 4s32 21 32 49c0 29 -28 49 -63 49c-31 0 -69 -17 -70 -63h-69
c0 37 14 63 35 83c26 24 63 36 105 36c46 0 86 -14 110 -43c14 -17 24 -38 24 -66c0 -32 -22 -70 -56 -78c38 -10 63 -48 63 -83z" />
    <glyph glyph-name="fraction" unicode="&#x2044;" horiz-adv-x="588" 
d="M579 685l-516 -706l-54 41l515 704z" />
    <glyph glyph-name="onequarter" unicode="&#xbc;" horiz-adv-x="860" 
d="M795 75h-59v-75h-69v75h-178v69l143 225h81l-148 -235h102v78h69v-78h59v-59zM710 685l-516 -706l-54 41l515 704zM247 345h-71v281l-92 -63v79l97 67h66v-364z" />
    <glyph glyph-name="onehalf" unicode="&#xbd;" horiz-adv-x="909" 
d="M804 -1h-274v63l155 130c23 19 39 36 39 67c0 10 -4 18 -8 25c-11 17 -31 25 -55 25c-44 0 -67 -28 -68 -70h-71c2 83 60 133 141 133c72 0 131 -42 131 -117c0 -58 -34 -86 -77 -122l-81 -68h168v-66zM705 685l-516 -706l-54 41l515 704zM242 345h-71v281l-92 -63v79
l97 67h66v-364z" />
    <glyph glyph-name="threequarters" unicode="&#xbe;" horiz-adv-x="902" 
d="M837 75h-59v-75h-69v75h-178v69l143 225h81l-148 -235h102v78h69v-78h59v-59zM752 685l-516 -706l-54 41l515 704zM349 447c0 -30 -10 -52 -25 -69c-28 -30 -70 -42 -117 -42c-44 0 -86 15 -112 45c-17 20 -30 47 -30 80h69c1 -44 31 -68 73 -68c38 0 71 14 71 53
c0 33 -20 56 -66 56h-28v57c22 0 32 -2 54 4s32 21 32 49c0 29 -28 49 -63 49c-31 0 -69 -17 -70 -63h-69c0 37 14 63 35 83c26 24 63 36 105 36c46 0 86 -14 110 -43c14 -17 24 -38 24 -66c0 -32 -22 -70 -56 -78c38 -10 63 -48 63 -83z" />
    <glyph glyph-name="percent" unicode="%" horiz-adv-x="919" 
d="M854 178c0 -46 -8 -87 -31 -121c-27 -39 -69 -70 -132 -70s-105 31 -132 70c-23 34 -31 75 -31 121s8 88 31 122c27 39 69 70 132 70s105 -31 132 -70c23 -34 31 -76 31 -122zM746 685l-516 -706l-54 41l515 704zM386 531c0 -46 -8 -87 -31 -121
c-27 -39 -69 -70 -132 -70s-105 31 -132 70c-23 34 -31 75 -31 121s8 88 31 122c27 39 69 70 132 70s105 -31 132 -70c23 -34 31 -76 31 -122zM777 178c0 41 -7 78 -29 101c-13 14 -29 24 -57 24s-45 -10 -58 -24c-22 -23 -29 -60 -29 -101s7 -77 29 -100
c13 -14 30 -24 58 -24s44 10 57 24c22 23 29 59 29 100zM309 531c0 41 -7 78 -29 101c-13 14 -29 24 -57 24s-45 -10 -58 -24c-22 -23 -29 -60 -29 -101s7 -77 29 -100c13 -14 30 -24 58 -24s44 10 57 24c22 23 29 59 29 100z" />
    <glyph glyph-name="perthousand" unicode="&#x2030;" horiz-adv-x="1175" 
d="M1125 168c0 -43 -7 -83 -29 -115c-25 -37 -66 -66 -126 -66s-100 29 -125 66c-22 32 -29 72 -29 115s7 84 29 116c25 37 65 67 125 67s101 -30 126 -67c22 -32 29 -73 29 -116zM765 168c0 -43 -7 -83 -29 -115c-25 -37 -65 -66 -125 -66s-101 29 -126 66
c-22 32 -29 72 -29 115s7 84 29 116c25 37 66 67 126 67s100 -30 125 -67c22 -32 29 -73 29 -116zM705 685l-516 -706l-54 41l515 704zM370 540c0 -43 -8 -83 -30 -115c-25 -37 -65 -66 -125 -66s-101 29 -126 66c-22 32 -29 72 -29 115s7 84 29 116c25 37 66 66 126 66
s100 -29 125 -66c22 -32 30 -73 30 -116zM1052 168c0 39 -6 74 -27 96c-12 13 -29 23 -55 23s-43 -10 -55 -23c-21 -22 -27 -57 -27 -96s6 -73 27 -95c12 -13 29 -23 55 -23s43 10 55 23c21 22 27 56 27 95zM692 168c0 39 -6 74 -27 96c-12 13 -28 23 -54 23
s-43 -10 -55 -23c-21 -22 -28 -57 -28 -96s7 -73 28 -95c12 -13 29 -23 55 -23s42 10 54 23c21 22 27 56 27 95zM297 540c0 39 -7 74 -28 96c-12 13 -28 23 -54 23s-43 -10 -55 -23c-21 -22 -28 -57 -28 -96s7 -73 28 -95c12 -13 29 -23 55 -23s42 10 54 23
c21 22 28 56 28 95z" />
    <glyph glyph-name="plus" unicode="+" horiz-adv-x="681" 
d="M616 268h-241v-263h-70v263h-240v69h240v247h70v-247h241v-69z" />
    <glyph glyph-name="minus" unicode="&#x2212;" horiz-adv-x="645" 
d="M585 262h-515v79h515v-79z" />
    <glyph glyph-name="plusminus" unicode="&#xb1;" horiz-adv-x="569" 
d="M504 332h-184v-187h-70v187h-185v70h185v185h70v-185h184v-70zM504 0h-439v69h439v-69z" />
    <glyph glyph-name="multiply" unicode="&#xd7;" horiz-adv-x="682" 
d="M617 76l-54 -54l-222 222l-222 -222l-54 54l222 222l-222 222l54 54l221 -222l223 222l54 -54l-223 -222z" />
    <glyph glyph-name="divide" unicode="&#xf7;" horiz-adv-x="652" 
d="M381 442h-114v118h114v-118zM577 261h-502v78h502v-78zM381 48h-114v118h114v-118z" />
    <glyph glyph-name="equal" unicode="=" horiz-adv-x="692" 
d="M587 344h-482v77h482v-77zM587 134h-482v77h482v-77z" />
    <glyph glyph-name="notequal" unicode="&#x2260;" horiz-adv-x="692" 
d="M587 134h-319l-83 -118l-50 35l58 83h-88v77h142l93 133h-235v77h289l79 113l50 -35l-55 -78h119v-77h-172l-94 -133h266v-77z" />
    <glyph glyph-name="approxequal" unicode="&#x2248;" horiz-adv-x="655" 
d="M580 374c-65 -64 -103 -78 -153 -78c-39 0 -75 16 -115 34c-25 11 -56 24 -85 24c-27 0 -53 -3 -99 -48l-53 55c65 64 103 78 153 78c29 0 56 -8 82 -18s52 -22 78 -31c13 -5 26 -7 39 -7c27 0 53 2 99 47zM580 184c-65 -64 -103 -78 -153 -78c-39 0 -75 15 -115 33
c-25 11 -56 25 -85 25c-27 0 -53 -3 -99 -48l-53 54c65 64 103 78 153 78c29 0 56 -7 82 -17s52 -22 78 -31c13 -5 26 -8 39 -8c27 0 53 2 99 47z" />
    <glyph glyph-name="less" unicode="&#x3c;" horiz-adv-x="472" 
d="M412 36l-48 -49l-319 318l318 317l49 -48l-269 -269z" />
    <glyph glyph-name="greater" unicode="&#x3e;" horiz-adv-x="472" 
d="M427 305l-319 -318l-48 49l269 269l-269 269l49 48z" />
    <glyph glyph-name="lessequal" unicode="&#x2264;" horiz-adv-x="588" 
d="M539 364c0 -54 -39 -94 -93 -94h-72c11 -15 17 -35 17 -54c0 -54 -39 -93 -93 -93h-249v248c0 54 39 94 93 94c20 0 39 -6 55 -17v71c0 54 39 94 93 94s93 -40 93 -94v-62h63c54 0 93 -40 93 -93zM522 364c0 45 -31 76 -76 76h-79v79c0 45 -32 77 -77 77s-76 -32 -76 -77
v-232h232c45 0 76 32 76 77z" />
    <glyph glyph-name="greaterequal" unicode="&#x2265;" horiz-adv-x="588" 
d="M539 364c0 -54 -39 -94 -93 -94h-72c11 -15 17 -35 17 -54c0 -54 -39 -93 -93 -93h-249v248c0 54 39 94 93 94c20 0 39 -6 55 -17v71c0 54 39 94 93 94s93 -40 93 -94v-62h63c54 0 93 -40 93 -93zM522 364c0 45 -31 76 -76 76h-79v79c0 45 -32 77 -77 77s-76 -32 -76 -77
v-232h232c45 0 76 32 76 77z" />
    <glyph glyph-name="logicalnot" unicode="&#xac;" horiz-adv-x="625" 
d="M540 99h-78v165h-407v77h485v-242z" />
    <glyph glyph-name="Delta" unicode="&#x394;" horiz-adv-x="588" 
d="M539 364c0 -54 -39 -94 -93 -94h-72c11 -15 17 -35 17 -54c0 -54 -39 -93 -93 -93h-249v248c0 54 39 94 93 94c20 0 39 -6 55 -17v71c0 54 39 94 93 94s93 -40 93 -94v-62h63c54 0 93 -40 93 -93zM522 364c0 45 -31 76 -76 76h-79v79c0 45 -32 77 -77 77s-76 -32 -76 -77
v-232h232c45 0 76 32 76 77z" />
    <glyph glyph-name="Omega" unicode="&#x2126;" horiz-adv-x="858" 
d="M790 355c0 -205 -154 -368 -361 -368s-361 162 -361 367s154 368 361 368s361 -162 361 -367zM723 355c0 175 -117 303 -294 303s-294 -129 -294 -304s117 -303 294 -303s294 129 294 304zM593 421c0 -78 -63 -125 -136 -125h-74v-135h-67v383h141c73 0 136 -45 136 -123
zM523 421c0 39 -30 61 -66 61h-75v-124h75c40 0 66 21 66 63z" />
    <glyph glyph-name="mu" unicode="&#xb5;" horiz-adv-x="590" 
d="M497 0h-74l-7 77c-26 -58 -91 -89 -150 -89c-34 0 -70 12 -88 26v-214h-85v706h85v-320c0 -76 28 -121 108 -121c34 0 62 15 84 38c32 33 42 88 42 140v263h85v-506z" />
    <glyph glyph-name="pi" unicode="&#x3c0;" horiz-adv-x="640" 
d="M570 4c-5 -2 -26 -11 -67 -11c-81 0 -109 62 -109 125v320h-167v-439h-84v439h-78v68h491v-68h-77v-310c0 -36 9 -62 46 -62c28 0 40 3 45 5v-67z" />
    <glyph glyph-name="degree" unicode="&#xb0;" horiz-adv-x="461" 
d="M396 558c0 -96 -72 -164 -166 -164s-165 68 -165 164s71 164 165 164s166 -68 166 -164zM321 558c0 55 -39 93 -91 93s-90 -38 -90 -93s38 -93 90 -93s91 38 91 93z" />
    <glyph glyph-name="infinity" unicode="&#x221e;" horiz-adv-x="721" 
d="M653 328h-111v-252h110v-76h-331c-76 0 -131 22 -169 59c-37 36 -57 85 -57 141c0 72 50 136 117 164c-60 26 -105 84 -105 154c0 62 19 103 57 138c36 33 86 54 154 54c30 0 62 -3 86 -9v-77c-23 5 -47 7 -80 7c-41 0 -70 -12 -91 -31c-22 -21 -34 -49 -34 -80
c0 -73 48 -117 126 -117h132v115h85v-115h111v-75zM457 76v252h-126c-84 0 -147 -55 -147 -131c0 -32 11 -59 28 -78c26 -29 68 -43 111 -43h134z" />
    <glyph glyph-name="partialdiff" unicode="&#x2202;" 
d="M501 0h-382v78h148v520l-165 -121v95l170 123h81v-617h148v-78z" />
    <glyph glyph-name="integral" unicode="&#x222b;" horiz-adv-x="588" 
d="M539 364c0 -54 -39 -94 -93 -94h-72c11 -15 17 -35 17 -54c0 -54 -39 -93 -93 -93h-249v248c0 54 39 94 93 94c20 0 39 -6 55 -17v71c0 54 39 94 93 94s93 -40 93 -94v-62h63c54 0 93 -40 93 -93zM522 364c0 45 -31 76 -76 76h-79v79c0 45 -32 77 -77 77s-76 -32 -76 -77
v-232h232c45 0 76 32 76 77z" />
    <glyph glyph-name="radical" unicode="&#x221a;" horiz-adv-x="690" 
d="M690 766h-110l-259 -774h-77l-179 512h91l127 -385l230 713h177v-66z" />
    <glyph glyph-name="summation" unicode="&#x2211;" horiz-adv-x="928" 
d="M852 -73h-776v221h47v-175h683v175h46v-221z" />
    <glyph glyph-name="product" unicode="&#x220f;" horiz-adv-x="812" 
d="M747 867c0 -11 -9 -21 -20 -21s-21 10 -21 21s10 20 21 20s20 -9 20 -20zM746 615c0 -12 -11 -21 -22 -21c-12 0 -19 10 -19 21s10 21 21 21s20 -10 20 -21zM492 867c0 -11 -10 -21 -21 -21s-21 10 -21 21s10 20 21 20s21 -9 21 -20zM620 737c0 -11 -9 -20 -20 -20
s-21 9 -21 20s10 21 21 21s20 -10 20 -21zM744 365c0 -11 -10 -21 -21 -21s-21 10 -21 21s10 20 21 20s21 -9 21 -20zM491 615c0 -11 -10 -21 -21 -21s-21 10 -21 21s10 21 21 21s21 -10 21 -21zM619 486c0 -11 -10 -21 -21 -21s-20 10 -20 21s9 21 20 21s21 -10 21 -21z
M237 867c0 -11 -10 -21 -21 -21s-20 10 -20 21s9 20 20 20s21 -9 21 -20zM365 737c0 -11 -10 -20 -21 -20s-21 9 -21 20s10 21 21 21s21 -10 21 -21zM745 113c0 -11 -10 -21 -21 -21s-21 10 -21 21s10 21 21 21s21 -10 21 -21zM488 365c0 -11 -10 -21 -21 -21s-21 10 -21 21
s10 20 21 20s21 -9 21 -20zM616 236c0 -11 -9 -21 -20 -21s-21 10 -21 21s10 20 21 20s20 -9 20 -20zM236 615c0 -11 -10 -21 -21 -21s-21 10 -21 21s10 21 21 21s21 -10 21 -21zM363 486c0 -11 -9 -21 -20 -21s-21 10 -21 21s10 21 21 21s20 -10 20 -21zM110 737
c0 -11 -10 -20 -21 -20s-21 9 -21 20s10 21 21 21s21 -10 21 -21zM745 -139c0 -11 -10 -21 -21 -21s-21 10 -21 21s10 21 21 21s21 -10 21 -21zM489 113c0 -11 -10 -21 -21 -21s-21 10 -21 21s10 21 21 21s21 -10 21 -21zM617 -16c0 -11 -9 -21 -20 -21s-21 10 -21 21
s10 21 21 21s20 -10 20 -21zM233 365c0 -11 -10 -21 -21 -21s-20 10 -20 21s9 20 20 20s21 -9 21 -20zM361 236c0 -11 -10 -21 -21 -21s-21 10 -21 21s10 20 21 20s21 -9 21 -20zM109 486c0 -11 -10 -21 -21 -21s-21 10 -21 21s10 21 21 21s21 -10 21 -21zM489 -139
c0 -11 -10 -21 -21 -21s-21 10 -21 21s10 21 21 21s21 -10 21 -21zM617 -268c0 -11 -9 -21 -20 -21s-21 10 -21 21s10 20 21 20s20 -9 20 -20zM234 113c0 -11 -9 -21 -20 -21s-21 10 -21 21s10 21 21 21s20 -10 20 -21zM362 -16c0 -11 -10 -21 -21 -21s-21 10 -21 21
s10 21 21 21s21 -10 21 -21zM106 236c0 -11 -10 -21 -21 -21s-20 10 -20 21s9 20 20 20s21 -9 21 -20zM234 -139c0 -11 -10 -21 -21 -21s-20 10 -20 21s9 21 20 21s21 -10 21 -21zM362 -268c0 -11 -10 -21 -21 -21s-21 10 -21 21s10 20 21 20s21 -9 21 -20zM107 -16
c0 -11 -10 -21 -21 -21s-20 10 -20 21s9 21 20 21s21 -10 21 -21zM107 -268c0 -11 -10 -21 -21 -21s-21 10 -21 21s10 20 21 20s21 -9 21 -20z" />
    <glyph glyph-name="lozenge" unicode="&#x25ca;" 
d="M512 348c0 -134 -12 -231 -82 -302c-34 -34 -81 -59 -150 -59s-116 25 -150 59c-70 71 -82 168 -82 302s12 232 82 303c34 34 81 58 150 58s116 -24 150 -58c70 -71 82 -169 82 -303zM400 550c-8 19 -19 35 -34 49c-20 19 -49 32 -86 32s-66 -13 -86 -32
c-59 -56 -57 -157 -57 -251c0 -39 -1 -80 3 -118zM423 348c0 37 0 75 -3 111l-257 -319c8 -16 18 -31 31 -43c20 -19 49 -32 86 -32s66 13 86 32c59 56 57 157 57 251z" />
    <glyph glyph-name="arrowleft" unicode="&#x2190;" horiz-adv-x="857" 
d="M792 269h-604l235 -232l-48 -50l-320 318l320 318l48 -50l-235 -232h604v-72z" />
    <glyph glyph-name="arrowright" unicode="&#x2192;" horiz-adv-x="857" 
d="M802 305l-319 -318l-48 50l234 232h-604v72h604l-234 232l48 50z" />
    <glyph glyph-name="uni2196" unicode="&#x2196;" horiz-adv-x="663" 
d="M613 215l-51 -51l-427 427v-331h-70v449h451v-67h-330z" />
    <glyph glyph-name="uni2197" unicode="&#x2197;" horiz-adv-x="663" 
d="M598 260h-70v331l-427 -427l-51 51l427 427h-331v67h452v-449z" />
    <glyph glyph-name="apple" unicode="&#xf8ff;" horiz-adv-x="588" 
d="M539 364c0 -54 -39 -94 -93 -94h-72c11 -15 17 -35 17 -54c0 -54 -39 -93 -93 -93h-249v248c0 54 39 94 93 94c20 0 39 -6 55 -17v71c0 54 39 94 93 94s93 -40 93 -94v-62h63c54 0 93 -40 93 -93zM522 364c0 45 -31 76 -76 76h-79v79c0 45 -32 77 -77 77s-76 -32 -76 -77
v-232h232c45 0 76 32 76 77z" />
    <glyph glyph-name="uni00A0" unicode="&#xa0;" horiz-adv-x="230" 
 />
    <glyph glyph-name="commaaccent" horiz-adv-x="230" 
d="M158 -61v-77c0 -42 -19 -71 -68 -85l-16 30c27 9 38 20 38 50h-39v82h85z" />
    <glyph glyph-name="commaaccent.alt" horiz-adv-x="230" 
d="M73 573v77c0 42 19 71 68 85l16 -30c-27 -9 -38 -20 -38 -50h39v-82h-85z" />
    <glyph glyph-name="caron.alt" horiz-adv-x="230" 
d="M132 722v-85c0 -36 -8 -76 -64 -102l-15 33c31 16 35 33 35 57v6h-33v91h77z" />
    </font>
</defs>
</svg>
